Статистика раздачи
Размер:  1,37 GB   |    Зарегистрирован:  3 месяца 12 дней   |    Скачан:  0 раз

Полного источника не было: Никогда

 
   
 
 

lopster ®

Пол:
Не указан
Стаж:
3 месяца 12 дней
Сообщений:
612

Рецепт колдуньи
Год выпуска: 2003
Жанр: Мелодрама
Продолжительность: 01:32:10.439 (138261 frames)
Режиссер: Татьяна Воронецкая
В ролях: Александр Лазарев мл., Амалия Мордвинова, Виктор Раков, Наташа Королева, Татьяна Васильева
Описание:
Музыкальная комедийная мелодрама по мотивам рассказа Валентина Черныха.
Оставив карьеру балерины, Полина посвящает себя семейному благополучию, с чем вполне соглашается муж-бизнесмен. Однако для полного счастья супружеской чете не достает детей, причиной чего является бездетность жены. Вопреки всем обстоятельствам, у Полины все-таки появляется долгожданный ребенок. Но кто же отец - муж, тайный поклонник Богдан... или это результат посещения колдуньи?..-Релиз -Все раздачи фильма: Рецепт колдуньи-Качество: DVDRip
Формат: AVI
Видео кодек: DivX
Аудио кодек: AC3
Видео: 720x480 (1.50:1), 25 fps, DivX Codec 6.8.5 ~1923 kbps avg, 0.22 bit/pixel
Аудио: 48 kHz, AC3 Dolby Digital, 2/0 (L,R) ch, ~192.00 kbps avg

MI

Код:Общее
Полное имя : C:\otkat\Видео\Рецепт колдуньи\Retsept.kolduni.2004.avi
Формат : AVI
Формат/Информация : Audio Video Interleave
Размер файла : 1,37 Гбайт
Продолжительность : 1 ч. 32 м.
Общий поток : 2123 Кбит/сек
Жанр : Romance
Программа кодирования : VirtualDubMod 1.5.10.2 (build 2540/release)
Формат оригинала/Имя : Movie
Примечание : DVDRip by gera
Видео
Идентификатор : 0
Формат : MPEG-4 Visual
Параметр BVOP формата : 3
Параметр QPel формата : Нет
Параметр GMC формата : Без точки перехода
Параметр матрицы формата : Default (MPEG)
Режим смешивания : Сжатый битовый поток
Идентификатор кодека : DX50
Идентификатор кодека/Подсказка : DivX 5
Продолжительность : 1 ч. 32 м.
Битрейт : 1923 Кбит/сек
Ширина : 720 пикселей
Высота : 480 пикселей
Соотношение сторон : 3:2
Частота кадров : 25,000 кадров/сек
Цветовое пространство : YUV
Субдискретизация насыщенности : 4:2:0
Битовая глубина : 8 бит
Тип развёртки : Прогрессивная
Метод сжатия : С потерями
Бит/(Пиксели*Кадры) : 0.223
Размер потока : 1,24 Гбайт (91%)
Библиотека кодирования : DivX 6.8.5 (UTC 2009-08-20)
Аудио
Идентификатор : 1
Формат : AC-3
Формат/Информация : Audio Coding 3
Расширение режима : CM (complete main)
Параметр Endianness формата : Big
Идентификатор кодека : 2000
Продолжительность : 1 ч. 32 м.
Вид битрейта : Постоянный
Битрейт : 192 Кбит/сек
Каналы : 2 канала
Расположение каналов : Front: L R
Частота : 48,0 КГц
Частота кадров : 31,250 кадров/сек (1536 spf)
Метод сжатия : С потерями
Размер потока : 127 Мбайт (9%)
Выравнивание : Разделение по промежуткам
Продолжительность промежутка : 64 мс. (1,60 видеокадра)
Время предзагрузки промежутка : 64 мс.

Скриншоты

Рип с этого DVD
[cybertorrent.ru].t113.torrent 
Торрент: Зарегистрирован [ 2018-02-15 13:57 ] · 8BEABDC0E37D1D04664E1875202A719E3B176CCF

Скачать .torrent

Скачать

14 KB

Статус: проверено
Скачан: 0 раз
Размер: 1,37 GB
Профиль [ЛС]
Показать сообщения:    

Текущее время: 28-Май 03:07

Часовой пояс: UTC ± 0



Вы не можете начинать темы
Вы не можете отвечать на сообщения
Вы не можете редактировать свои сообщения
Вы не можете удалять свои сообщения
Вы не можете голосовать в опросах
Вы не можете прикреплять файлы к сообщениям
Вы можете скачивать файлы