cooman ®

Пол:
Не указан
Стаж:
11 месяцев 12 дней
Сообщений:
32

Стражи Арктики / Arctic Justice
«Time to Run With the Big Dogs!»
- Страна: Индия, Великобритания, Китай, Канада, Япония, Корея Южная, США
Production Co: AMBI Group, Arctic Justice Movie, Assemblage Entertainment
Жанр: мультфильм, комедия, приключения, семейный
Год выпуска: 2019
Продолжительность: 01:32:53-Перевод: Профессиональный (дублированный) | iTunes (RUS, UKR)
Субтитры: Eng (SDH)
Оригинальная аудиодорожка: Eng-Режиссер: Аарон Вудли / Aaron Woodley-В ролях: Джереми Реннер, Хайди Клум, Джеймс Франко, Джон Клиз, Омар Си, Лори Холден, Анжелика Хьюстон, Алек Болдуин, Донни Фалсетти, Сорайя Аззаби-Описание:Добро пожаловать на ЗвероПолюс, где власть находится в лапах больших, сильных и зубастых. Ради собственного превосходства они готовы переделать под себя весь мир. Лишь маленькие, но очень храбрые встанут на защиту не только родного Северного полюса, но и целой планеты. Именно они - настоящие Стражи Арктики.-Релиз:


IMDb: 4.30 (667)
Sample-Качество видео: BDRip-AVC| Arctic.Dogs.2019.iT.1080p.BluRay.REMUX.AVC.Rus.Ukr.Eng
Формат видео: MKV
Видео: AVC 2200 kb/s 1104 x 462 (2.390) 23.976 fps
Аудио: AC-3 384 kb/s 6 channels, 48.0 kHz RUS iTunes
Аудио 2: AC-3 384 kb/s 6 channels, 48.0 kHz UKR iTunes
Аудио 2: AC-3 448 kb/s 6 channels, 48.0 kHz ENG

MediaInfo | Log

Log

x264 [info]: frame I:1495 Avg QP:11.40 size: 93491
x264 [info]: frame P:33052 Avg QP:13.27 size: 22109
x264 [info]: frame B:99086 Avg QP:16.10 size: 6681
x264 [info]: consecutive B-frames: 2.7% 2.7% 17.5% 35.4% 14.2% 20.8% 2.6% 2.4% 0.9% 0.8%
x264 [info]: mb I I16..4: 10.6% 52.6% 36.8%
x264 [info]: mb P I16..4: 1.0% 10.6% 2.8% P16..4: 22.4% 21.8% 12.1% 3.7% 0.7% skip:24.8%
x264 [info]: mb B I16..4: 0.3% 1.8% 0.4% B16..8: 22.3% 14.9% 3.3% direct: 3.8% skip:53.3% L0:40.4% L1:43.7% BI:15.8%
x264 [info]: 8x8 transform intra:70.1% inter:41.5%
x264 [info]: direct mvs spatial:100.0% temporal:0.0%
x264 [info]: coded y,uvDC,uvAC intra: 84.7% 85.9% 77.3% inter: 14.9% 11.6% 6.1%
x264 [info]: i16 v,h,dc,p: 28% 13% 12% 47%
x264 [info]: i8 v,h,dc,ddl,ddr,vr,hd,vl,hu: 11% 16% 13% 8% 9% 8% 11% 10% 14%
x264 [info]: i4 v,h,dc,ddl,ddr,vr,hd,vl,hu: 11% 12% 11% 8% 14% 11% 13% 9% 12%
x264 [info]: i8c dc,h,v,p: 39% 31% 16% 14%
x264 [info]: Weighted P-Frames: Y:2.2% UV:1.6%
x264 [info]: ref P L0: 55.9% 7.8% 15.1% 5.5% 4.2% 3.2% 2.7% 1.5% 1.4% 1.3% 1.3% 0.1% 0.0%
x264 [info]: ref B L0: 75.4% 10.1% 5.2% 2.6% 2.0% 1.6% 1.4% 0.8% 0.6% 0.3%
x264 [info]: ref B L1: 94.8% 5.2%
x264 [info]: kb/s:2199.70
x264 [total]: encoded 133633 frames, 19.66 fps, 2199.70 kb/s
Format : Matroska
Format version : Version 4
File size : 2.22 GiB
Duration : 1 h 32 min
Overall bit rate : 3 418 kb/s
Movie name : Arctic Justice (2019). [rutracker.org]
Encoded date : UTC 2020-01-30 22:11:51
Writing application : mkvmerge v8.2.0 ('World of Adventure') 64bit
Writing library : libebml v1.3.1 + libmatroska v1.4.2
Video
ID : 1
Format : AVC
Format/Info : Advanced Video Codec
Format profile : High@L4.1
Format settings : CABAC / 11 Ref Frames
Format settings, CABAC : Yes
Format settings, Reference frames : 11 frames
Codec ID : V_MPEG4/ISO/AVC
Duration : 1 h 32 min
Bit rate : 2 200 kb/s
Width : 1 104 pixels
Height : 462 pixels
Display aspect ratio : 2.40:1
Frame rate mode : Constant
Frame rate : 23.976 (24000/1001) FPS
Color space : YUV
Chroma subsampling : 4:2:0
Bit depth : 8 bits
Scan type : Progressive
Bits/(Pixel*Frame) : 0.180
Stream size : 1.43 GiB (64%)
Title : Arctic Justice (2019). [rutracker.org]
Writing library : x264 core 159 r2991 1771b55
Encoding settings : cabac=1 / ref=11 / deblock=1:-3:-2 / analyse=0x3:0x133 / me=umh / subme=11 / psy=1 / psy_rd=1.00:0.05 / mixed_ref=1 / me_range=48 / chroma_me=1 / trellis=2 / 8x8dct=1 / cqm=0 / deadzone=21,11 / fast_pskip=0 / chroma_qp_offset=-3 / threads=12 / lookahead_threads=2 / sliced_threads=0 / nr=0 / decimate=1 / interlaced=0 / bluray_compat=0 / constrained_intra=0 / bframes=9 / b_pyramid=2 / b_adapt=2 / b_bias=0 / direct=3 / weightb=1 / open_gop=0 / weightp=2 / keyint=250 / keyint_min=23 / scenecut=40 / intra_refresh=0 / rc_lookahead=60 / rc=crf / mbtree=0 / crf=15.7 / qcomp=0.60 / qpmin=0 / qpmax=69 / qpstep=4 / vbv_maxrate=50000 / vbv_bufsize=62500 / crf_max=0.0 / nal_hrd=none / filler=0 / ip_ratio=1.40 / pb_ratio=1.30 / aq=3:0.90
Language : English
Default : Yes
Forced : No
Audio #1
ID : 2
Format : AC-3
Format/Info : Audio Coding 3
Commercial name : Dolby Digital
Codec ID : A_AC3
Duration : 1 h 32 min
Bit rate mode : Constant
Bit rate : 384 kb/s
Channel(s) : 6 channels
Channel layout : L R C LFE Ls Rs
Sampling rate : 48.0 kHz
Frame rate : 31.250 FPS (1536 SPF)
Bit depth : 16 bits
Compression mode : Lossy
Stream size : 255 MiB (11%)
Title : DUB (iTunes)
Language : Russian
Service kind : Complete Main
Default : Yes
Forced : No
Audio #2
ID : 3
Format : AC-3
Format/Info : Audio Coding 3
Commercial name : Dolby Digital
Codec ID : A_AC3
Duration : 1 h 32 min
Bit rate mode : Constant
Bit rate : 384 kb/s
Channel(s) : 6 channels
Channel layout : L R C LFE Ls Rs
Sampling rate : 48.0 kHz
Frame rate : 31.250 FPS (1536 SPF)
Bit depth : 16 bits
Compression mode : Lossy
Stream size : 255 MiB (11%)
Title : DUB (iTunes)
Language : Ukrainian
Service kind : Complete Main
Default : No
Forced : No
Audio #3
ID : 4
Format : AC-3
Format/Info : Audio Coding 3
Commercial name : Dolby Digital
Codec ID : A_AC3
Duration : 1 h 32 min
Bit rate mode : Constant
Bit rate : 448 kb/s
Channel(s) : 6 channels
Channel layout : L R C LFE Ls Rs
Sampling rate : 48.0 kHz
Frame rate : 31.250 FPS (1536 SPF)
Bit depth : 16 bits
Compression mode : Lossy
Stream size : 298 MiB (13%)
Title : Original
Language : English
Service kind : Complete Main
Default : No
Forced : No
Text
ID : 5
Format : UTF-8
Codec ID : S_TEXT/UTF8
Codec ID/Info : UTF-8 Plain Text
Duration : 1 h 31 min
Bit rate : 69 b/s
Count of elements : 1599
Stream size : 46.7 KiB (0%)
Title : SDH
Language : English
Default : No
Forced : No
Menu
00:00:00.000 : en:Chapter 01
00:06:18.628 : en:Chapter 02
00:12:54.524 : en:Chapter 03
00:18:57.553 : en:Chapter 04
00:23:55.267 : en:Chapter 05
00:27:27.521 : en:Chapter 06
00:33:06.151 : en:Chapter 07
00:39:50.388 : en:Chapter 08
00:47:18.002 : en:Chapter 09
00:52:12.796 : en:Chapter 10
00:58:18.370 : en:Chapter 11
01:04:20.607 : en:Chapter 12
01:12:02.193 : en:Chapter 13
01:16:21.744 : en:Chapter 14
01:20:27.489 : en:Chapter 15
01:26:59.548 : en:Chapter 16

Скриншоты



Профиль [ЛС]
Показать сообщения:    

Текущее время: 24-Фев 23:44

Часовой пояс: UTC ± 0



Вы не можете начинать темы
Вы не можете отвечать на сообщения
Вы не можете редактировать свои сообщения
Вы не можете удалять свои сообщения
Вы не можете голосовать в опросах
Вы не можете прикреплять файлы к сообщениям
Вы можете скачивать файлы