karlll ®

Пол:
Не указан
Стаж:
11 месяцев 12 дней
Сообщений:
197

Переполох / Tracis
Страна: Латвия
Жанр: мультфильм
Продолжительность: 00:02:02
Год выпуска: 1995
Перевод: любительский (одноголосый закадровый) progulkin
Русские субтитры: нет
Режиссёр: Розе Стиебра / Roze Stiebra
Описание: Из цикла "Pasaciņas" / "Сказочки".
Как кошечка и зайчик встретились ночной порой.
Качество: VHSRip
Формат: AVI
Видео: 2366 kbps, 720х544 (4:3), 25.000 fps, MPEG-4 Visual (XviD)
Аудио 1(rus): 160 kbps, 48.0 kHz, 2 channels, MPEG Audio (MP3)
Аудио 2(latv): 192 kbps, 44.1 kHz, 2 channels, MPEG Audio (MP3)
Субтитры: отсутствуют

Подробные технические данные

General
Complete name : Tracis (1995).avi
Format : AVI
Format/Info : Audio Video Interleave
File size : 39.9 MiB
Duration : 2mn 2s
Overall bit rate : 2 733 Kbps
Writing application : VirtualDubMod 1.5.10.2 (build 2540/release)
Writing library : VirtualDubMod build 2540/release
Video
ID : 0
Format : MPEG-4 Visual
Format profile : Advanced Simple@L5
Format settings, BVOP : 2
Format settings, QPel : No
Format settings, GMC : No warppoints
Format settings, Matrix : Default (H.263)
Codec ID : XVID
Codec ID/Hint : XviD
Duration : 2mn 2s
Bit rate : 2 366 Kbps
Width : 720 pixels
Height : 544 pixels
Display aspect ratio : 4:3
Frame rate : 25.000 fps
Color space : YUV
Chroma subsampling : 4:2:0
Bit depth : 8 bits
Scan type : Progressive
Compression mode : Lossy
Bits/(Pixel*Frame) : 0.242
Stream size : 34.5 MiB (87%)
Writing library : XviD 73
Audio #1
ID : 1
Format : MPEG Audio
Format version : Version 1
Format profile : Layer 3
Mode : Joint stereo
Codec ID : 55
Codec ID/Hint : MP3
Duration : 2mn 2s
Bit rate mode : Constant
Bit rate : 160 Kbps
Channel(s) : 2 channels
Sampling rate : 48.0 KHz
Compression mode : Lossy
Stream size : 2.33 MiB (6%)
Alignment : Aligned on interleaves
Interleave, duration : 40 ms (1.00 video frame)
Interleave, preload duration : 504 ms
Audio #2
ID : 2
Format : MPEG Audio
Format version : Version 1
Format profile : Layer 3
Codec ID : 55
Codec ID/Hint : MP3
Duration : 2mn 2s
Bit rate mode : Constant
Bit rate : 192 Kbps
Channel(s) : 2 channels
Sampling rate : 44.1 KHz
Compression mode : Lossy
Stream size : 2.80 MiB (7%)
Alignment : Split accross interleaves
Interleave, duration : 40 ms (1.00 video frame)
Interleave, preload duration : 500 ms

Скриншоты

Другие раздачи мультфильмов этого цикла

Aicinājums / Зов - http://cybertorrent.ru/viewtopic.php?t=3331688
Bukurags / Бяшка бодашка - http://cybertorrent.ru/viewtopic.php?t=3323885
Ciemā / В гостях - http://cybertorrent.ru/viewtopic.php?t=5830439
Kā linu druva sāka ziedēt / Как зацвёл лён - http://cybertorrent.ru/viewtopic.php?t=3331703
Kam ir visskaistākās ūsas / У кого усы всех краше - http://cybertorrent.ru/viewtopic.php?t=5831810
Ķekatdancis / Танец ряженых - http://cybertorrent.ru/viewtopic.php?t=5826888
Miega vilcieniņš / Сонный поезд - http://cybertorrent.ru/viewtopic.php?t=5828658
Mīkla par garo pupu / Загадка про длинные бобы - http://cybertorrent.ru/viewtopic.php?t=5840664
Nebēda / Не горюй - http://cybertorrent.ru/viewtopic.php?t=5837535
Sapnis / Сон - http://cybertorrent.ru/viewtopic.php?t=5831286
Skumjā govs / Грустная корова - http://cybertorrent.ru/viewtopic.php?t=5832884
Профиль [ЛС]
Показать сообщения:    

Текущее время: 24-Фев 22:47

Часовой пояс: UTC ± 0



Вы не можете начинать темы
Вы не можете отвечать на сообщения
Вы не можете редактировать свои сообщения
Вы не можете удалять свои сообщения
Вы не можете голосовать в опросах
Вы не можете прикреплять файлы к сообщениям
Вы можете скачивать файлы