Статистика раздачи
Размер:  2,72 GB   |    Зарегистрирован:  5 месяцев 5 дней   |    Скачан:  0 раз

Полного источника не было: Никогда

 
   
 
 

Симка ®

Пол:
Не указан
Стаж:
5 месяцев 6 дней
Сообщений:
73

Немёртвая Принцесса:Чёрная Хроника
Shikabane Hime: Kuro
Год выпуска: 2009
Страна: Япония
Жанр: приключения, мистика
Продолжительность: ТВ, 13 эп по 25 мин
Перевод: двухголосный (только первые 12 серий)
Русские субтитры: есть
Режиссер: Мурата Масахико
Студия:

Описание: 15-летний Ори Кагами вырос в храмовом приюте и привык видеть странное: ведь дзэн-буддизм, который исповедуют его «старшие братья», неустанно повторяет – мир не таков, каким кажется. Но однажды он увидел нечто, в корне поколебавшее его представление о мире. Дух-хранитель в образе кошки призвал Ори пойти ночью в храм, где парень стал свидетелем тайного ритуала воскрешения юной школьницы, при этом монахи называли молодого настоятеля Кэйсэя Стражем, а девушку – Исполнителем. Таким образом, Макина Хосимура, убитая сикабанэ – «нелюдями», ходячими трупами – стала такой же и заключила с монахами нерушимый договор. Она убивает ровно 108 сикабанэ (это число символизирует в буддизме все сущее) и после этого обретает вечный покой на небесах.
Доп. информация: Это обновляемая раздача, будут выкладываться внешние звуковые дорожки по мере выхода (в тч и на спешиалы)
Ченджлог: 04.01.10 Добавлена 13-я серия и спешал с русскими субтитрами, добавлено двухголосный русский офервойс отдельными файлами на первые 12 серий
Качество: DVDRip
Формат: MKV
Видео кодек: x.264
Аудио кодек: Vorbis
Видео: 704х480 (анаморф 834х480); 900 Кбит/сек; 23.976 fps
Аудио: OGG Vorbis; Стерео; 48 кГц; 160 Кбит/сек
Внешнее Аудио: MP3; Стерео, 48 кГц, 128 Кбит/сек - Двухголосная озвучка от Ksiss & Genefreak (Отдельное спасибо Arbalest за ретайминг дорожек под двдрип)
Внешние Субтитры: ASS; перевод от Jeka & Glym & Reaper (1-12), Kasumi-chan & kosmos_kn & hanter & Ditritus (13), Andrius (Sp1)

Список эпизодов

01. Path of Light (Путь к свету)
02. My Enemy (Враг мой)
03. Loved Variant (Вариант любви)
04. Itsuki's Shape (Образ Ицуки)
05. Nature And Regret (Природа и жалость)
06. The Monster named Happiness (Чудовище, зовущееся Счастье)
07. Common Desire (Заветное желание)
08. My Mother Is Immortal (Моя мать бессмертна)
09. Value of the Living (Цена жизни)
10. Destination Hell (По ту сторону ада)
11. 108 Lies(108 обманов)
12. The End of Shikabane (Конец нежити)
S1. Even So, As a Human (Как человек)
S2. Omake (Омаке)

Скриншоты

Отличия от других раздач

Это кошерный двд рип без титров опенинга и эндинга, информационных сообщений и 10 секундной рекламы в начале серий.-от http://cybertorrent.ru/viewtopic.php?t=1727516
0. отсутствие титров опенинга и эндинга, информационных сообщений и 10 секундной рекламы в начале серий
1. отсутствие озвучки (пока)
2. несовместимость с "железными" плеерами
3. качество картинки

Сравнение картинки, Вверху моя, внизу Ksiss-сана



На нижнем скриншоте помимо титров, артефакты обширнее (например правый край банта)
-от http://cybertorrent.ru/viewtopic.php?t=1453228
0. отсутствие титров опенинга и эндинга, информационных сообщений и 10 секундной рекламы в начале серий
1. качество картинки (там HDTV рип)

Сравнение картинки, Вверху моя (увеличина), внизу baton4iik-сана



Качество сравниваемого рипа весьма хорошее и линии выглядят четче, чем у меня, имхо из-за этого и некоторые "кубики кодировки" заметнее, но меня лично вот это особенно раздражает:

в динамических сценах наблюдается интерполяция кадров что имхо не есть гут


кто не сразу заметил на сравниваемом рипе есть "тень движения", которая отсутствует в данном
-

Подробные тех. данные

General
Unique ID : 218227192814880807156618572315382408330 (0xA42D074DE274C92AA5AB8C2A4192648A)
Complete name : \Shikabane Hime Kuro\[SomeBody-Raws][DVD]_Shikabane_Hime_Kuro_-_01_RAW_(704x480_x264_AAC).mkv
Format : Matroska
Format version : Version 2
File size : 182 MiB
Duration : 23 min 42 s
Overall bit rate mode : Variable
Overall bit rate : 1 071 kb/s
Encoded date : UTC 2009-06-21 20:45:22
Writing application : mkvmerge v2.9.5 ('Tu es le seul') built on Jun 18 2009 21:35:17
Writing library : libebml v0.7.7 + libmatroska v0.8.1
Video
ID : 1
Format : AVC
Format/Info : Advanced Video Codec
Format profile : High@L3.1
Format settings, CABAC : Yes
Format settings, RefFrames : 12 frames
Codec ID : V_MPEG4/ISO/AVC
Duration : 23 min 42 s
Bit rate : 890 kb/s
Width : 704 pixels
Height : 480 pixels
Display aspect ratio : 1.738
Frame rate mode : Constant
Frame rate : 23.976 (24000/1001) FPS
Color space : YUV
Chroma subsampling : 4:2:0
Bit depth : 8 bits
Scan type : Progressive
Bits/(Pixel*Frame) : 0.110
Stream size : 151 MiB (83%)
Writing library : x264 core 67 r1170 364d7df
Encoding settings : cabac=1 / ref=12 / deblock=1:-1:-1 / analyse=0x3:0x113 / me=tesa / subme=9 / psy_rd=0.0:0.0 / mixed_ref=1 / me_range=16 / chroma_me=1 / trellis=2 / 8x8dct=1 / cqm=0 / deadzone=21,11 / chroma_qp_offset=0 / threads=3 / nr=0 / decimate=0 / mbaff=0 / bframes=3 / b_pyramid=1 / b_adapt=2 / b_bias=0 / direct=1 / wpredb=0 / keyint=250 / keyint_min=25 / scenecut=40 / rc=crf / crf=16.0 / qcomp=0.60 / qpmin=10 / qpmax=51 / qpstep=4 / ip_ratio=1.40 / pb_ratio=1.30 / aq=1:1.00
Default : Yes
Forced : No
Audio
ID : 2
Format : Vorbis
Format settings, Floor : 1
Codec ID : A_VORBIS
Duration : 23 min 42 s
Bit rate mode : Variable
Bit rate : 160 kb/s
Channel(s) : 2 channels
Sampling rate : 48.0 kHz
Compression mode : Lossy
Stream size : 27.1 MiB (15%)
Writing library : aoTuV b5d (UTC 2009-03-01)
Language : Japanese
Default : Yes
Forced : No
[cybertorrent.ru].t1143.torrent 
Торрент: Зарегистрирован [ 2018-02-16 03:41 ] · 2A5878422F627F6DD6811CC9D0E31006EE812C9B

Скачать .torrent

Скачать

19 KB

Статус: проверено
Скачан: 0 раз
Размер: 2,72 GB
Профиль [ЛС]
Показать сообщения:    

Текущее время: 21-Июл 11:12

Часовой пояс: UTC ± 0



Вы не можете начинать темы
Вы не можете отвечать на сообщения
Вы не можете редактировать свои сообщения
Вы не можете удалять свои сообщения
Вы не можете голосовать в опросах
Вы не можете прикреплять файлы к сообщениям
Вы можете скачивать файлы