MAGNAT ®

Пол:
Мужской
Стаж:
10 месяцев 27 дней
Сообщений:
1864

Мертвая зона / Zone Blanche- Год выпуска: 2017
Страна: Франция, Бельгия
Жанр: Триллер, драма, детектив, мистика
Продолжительность: ~00:55:00-Перевод: Профессиональный (многоголосый закадровый)
-TVShows--Режиссёр: Жульен Деспакс, Тьерри Пуаро
В ролях: Сирьель Дебрей, Брижит Си, Нэйдра Айади, Тифен Давьо, Рено Раттен, Камилль Агиляр, Самуэль Жуи, Сулиан Брахим, Лорен Капеллуто, Юбер Делаттре-Описание: Вильфранш-небольшой городок без телефонной связи на краю таинственного леса. Число жителей сокращается, но наблюдается резкий рост преступности. Инспектор полиции Лорен Вайс, когда-то сама жертва преступления, продолжает обнаруживать новые трупы.-Качество: WEB-DL 1080p
Контейнер: MKV
Видео: MPEG-4 AVC, 1920x960, 25 fps, ~4565 kbps
Аудио 1: Русский, AC3, 48 kHz, 2 ch, 192 kbps
Аудио 2: Французский, E-AC3, 48 kHz, 2 ch, 224 kbps
Субтитры: Английские-Реклама: Отсутствует-

MediaInfo

General
Unique ID : 212284803302857388057147508782691855177 (0x9FB490E1920C9118AFEA69D2EA5D2B49)
Complete name : Zone.Blanche.S01E01.1080p.TVShows.mkv
Format : Matroska
Format version : Version 4
File size : 1.93 GiB
Duration : 55 min 25 s
Overall bit rate mode : Variable
Overall bit rate : 4 983 kb/s
Encoded date : UTC 2019-09-26 09:39:49
Writing application : mkvmerge v33.1.0 ('Primrose') 64-bit
Writing library : libebml v1.3.7 + libmatroska v1.5.0
Video
ID : 1
Format : AVC
Format/Info : Advanced Video Codec
Format profile : High@L4
Format settings : CABAC / 4 Ref Frames
Format settings, CABAC : Yes
Format settings, Reference frames : 4 frames
Codec ID : V_MPEG4/ISO/AVC
Duration : 55 min 25 s
Bit rate mode : Variable
Bit rate : 4 565 kb/s
Maximum bit rate : 15.0 Mb/s
Width : 1 920 pixels
Height : 960 pixels
Display aspect ratio : 2.000
Frame rate mode : Constant
Frame rate : 25.000 FPS
Color space : YUV
Chroma subsampling : 4:2:0
Bit depth : 8 bits
Scan type : Progressive
Bits/(Pixel*Frame) : 0.099
Stream size : 1.77 GiB (92%)
Default : Yes
Forced : No
Color range : Limited
Color primaries : BT.709
Transfer characteristics : BT.709
Matrix coefficients : BT.709
Audio #1
ID : 2
Format : AC-3
Format/Info : Audio Coding 3
Commercial name : Dolby Digital
Codec ID : A_AC3
Duration : 55 min 25 s
Bit rate mode : Constant
Bit rate : 192 kb/s
Channel(s) : 2 channels
Channel layout : L R
Sampling rate : 48.0 kHz
Frame rate : 31.250 FPS (1536 SPF)
Compression mode : Lossy
Stream size : 76.1 MiB (4%)
Title : TVShows
Language : Russian
Service kind : Complete Main
Default : Yes
Forced : Yes
Audio #2
ID : 3
Format : E-AC-3
Format/Info : Enhanced AC-3
Commercial name : Dolby Digital Plus
Codec ID : A_EAC3
Duration : 55 min 25 s
Bit rate mode : Constant
Bit rate : 224 kb/s
Channel(s) : 2 channels
Channel layout : L R
Sampling rate : 48.0 kHz
Frame rate : 31.250 FPS (1536 SPF)
Compression mode : Lossy
Stream size : 88.8 MiB (4%)
Title : Original
Language : French
Service kind : Complete Main
Default : No
Forced : No
Text
ID : 4
Format : UTF-8
Codec ID : S_TEXT/UTF8
Codec ID/Info : UTF-8 Plain Text
Duration : 54 min 48 s
Bit rate : 48 b/s
Count of elements : 669
Stream size : 19.3 KiB (0%)
Title : English
Language : English
Default : No
Forced : No

Скриншоты

Профиль [ЛС]
Показать сообщения:    

Текущее время: 24-Фев 23:49

Часовой пояс: UTC ± 0



Вы не можете начинать темы
Вы не можете отвечать на сообщения
Вы не можете редактировать свои сообщения
Вы не можете удалять свои сообщения
Вы не можете голосовать в опросах
Вы не можете прикреплять файлы к сообщениям
Вы можете скачивать файлы