Статистика раздачи
Размер:  915 MB   |    Зарегистрирован:  3 месяца 6 дней   |    Скачан:  0 раз

Полного источника не было: Никогда

 
   
 
 

lopster ®

Пол:
Не указан
Стаж:
3 месяца 6 дней
Сообщений:
612

Графиня Шереметева
Жанр: Исторический, мелодрама
Продолжительность: 1ч.29мин.31сек.(1серия-49мин.12сек.)(2серия-40мин.19сек.)
Год выпуска:1994
Режиссер: Тамара Павлюченко
В ролях: Андрей Ростоцкий, Борис Плотников, Игорь Ясулович, Александр Вдовин, Лидия Федосеева-Шукшина, Дарья Юрская, Надежда Бутырцева, Евгений Лазарев, Евгений Князев
Описание: История любви графа Николая Шереметева и крепостной актрисы Прасковьи Жемчуговой.
Все раздачи фильма: Графиня Шереметева
Качество: SATRip
Формат: AVI
Видео кодек: XviD
Аудио кодек: MP3
Видео: 694х560 (1,24:1), 25 fps, XviD MPEG-4~1291 kbps avg, 0,133 bit/pixel
Аудио: 48 kHz, MPEG Layer 3, 2 ch, ~128.00 kbps avg

Скриншоты

медиаинфо

General
Complete name : D:\Graphinya_Sheremeteva_1994\Graphinya_Sheremeteva_1994_part1.avi
Format : AVI
Format/Info : Audio Video Interleave
File size : 503 MiB
Duration : 49mn 12s
Overall bit rate : 1 428 Kbps
Movie name : Графиня Шереметева. Серия 1
Director : chizhik
Genre : Melodrama
Original source form/Name : Movie
Copyright : vas8084
Comment : Ripped for www.torrents.ru
Video
ID : 0
Format : MPEG-4 Visual
Format profile : Advanced Simple@L5
Format settings, BVOP : Yes
Format settings, QPel : No
Format settings, GMC : No warppoints
Format settings, Matrix : Default (H.263)
Muxing mode : Packed bitstream
Codec ID : XVID
Codec ID/Hint : XviD
Duration : 49mn 12s
Bit rate : 1 291 Kbps
Width : 694 pixels
Height : 560 pixels
Display aspect ratio : 5:4
Frame rate : 25.000 fps
Color space : YUV
Chroma subsampling : 4:2:0
Bit depth : 8 bits
Scan type : Progressive
Compression mode : Lossy
Bits/(Pixel*Frame) : 0.133
Stream size : 454 MiB (90%)
Writing library : XviD 1.2.1 (UTC 2008-12-04)
Audio
ID : 1
Format : MPEG Audio
Format version : Version 1
Format profile : Layer 3
Mode : Joint stereo
Mode extension : MS Stereo
Codec ID : 55
Codec ID/Hint : MP3
Duration : 49mn 12s
Bit rate mode : Constant
Bit rate : 128 Kbps
Channel(s) : 2 channels
Sampling rate : 48.0 KHz
Compression mode : Lossy
Stream size : 45.0 MiB (9%)
Alignment : Split accross interleaves
Interleave, duration : 40 ms (1.00 video frame)
Interleave, preload duration : 500 ms
Writing library : LAME3.97
[cybertorrent.ru].t115.torrent 
Торрент: Зарегистрирован [ 2018-02-15 13:57 ] · F64A4CB0138308A6B33A3ACF31034B7A9FA8D993

Скачать .torrent

Скачать

18 KB

Статус: проверено
Скачан: 0 раз
Размер: 915 MB
Профиль [ЛС]
Показать сообщения:    

Текущее время: 22-Май 00:10

Часовой пояс: UTC ± 0



Вы не можете начинать темы
Вы не можете отвечать на сообщения
Вы не можете редактировать свои сообщения
Вы не можете удалять свои сообщения
Вы не можете голосовать в опросах
Вы не можете прикреплять файлы к сообщениям
Вы можете скачивать файлы