Статистика раздачи
Размер:  5,2 GB   |    Зарегистрирован:  7 месяцев 2 дня   |    Скачан:  0 раз

Полного источника не было: Никогда

   
 

Гость ®

Пол:
Не указан

Седьмая руна- Год выпуска: 2015
Производство: «Кинокомпания "Марс Медиа"»
Жанр: Детектив, мистика
Продолжительность: ~ 50 мин.
Субтитры: Отсутствуют-Режиссер: Сергей Попов (II)-В ролях: Юрий Колокольников, Юлия Снигирь, Дмитрий Куличков, Виктор Сухоруков, Дмитрий Ульянов, Роман Мадянов, Юрий Цурило, Мария Сокова, Константин Чепурин, Дарья Екамасова, Агния Кузнецова, Андрей Шибаршин, Антон Васильев (III), Мария Семёнова, Сергей Маркеев, Полина Русакова, Арсений Кудряшов, Екатерина Головина (II), Евгения Осипова, Александр Нестеров (III), Мария Кузнецова, Наум Швец, Егор Лесников, Андрей Марусин, Екатерина Агеева, Иван Ефремов (II), Алиса Садимбаева, Батсуух Билгуун, Данила Воропаев, Артур Шумаков, Юлия Нижельская, Дмитрий Лебедев-Жаков, Евгений Капитонов, Николай Данилов, Татьяна Мишина, Роман Павлушев, Сергей Федоров (VI), Даниил Лебедев-Жаков, Станислав Мухамадеев, Сергей Кудрявцев, Дмитрий Воробьёв (II), Сергей Бызгу, Артём Лощилин, Татьяна Рябоконь, Николай Синицин, Саша Чигирь, Михаил Бракоренко, Олег Чугунов, Алексей Слепов и др.-Описание: В городе Н-ск при загадочных обстоятельствах погибает дочь губернатора. Для выяснения обстоятельств её смерти в город Н-ск из Москвы приезжает следователь Олег Нестеров. В том месте, где нашли тело девушки, проходила ролевая игра по карело-финскому эпосу «Калевала», и председатель ролевиков Вера параллельно начинает свое расследование. Однако новые жертвы и серия загадочных событий все больше запутывают Олега и Веру. А вскоре Нестеров понимает, что в Н-ске играют не только ролевики. И банкир, и прокурор, и губернатор вовлечены в некую странную азартную игру, смысл которой скрыт от непосвященных.-Релиз группы -Все раздачи сериала
Семпл
Кино-Театр-Качество: WEBRip
Формат: AVI
Видео кодек: XviD
Аудио кодек: AC3
Видео: 720x400 (1.80:1), 25 fps, XviD build 73 ~1699 kbps avg, 0.24 bit/pixel
Аудио: 48 kHz, AC3 Dolby Digital, 2/0 (L,R) ch, ~192.00 kbps avg

MediaInfo

Код:General
Complete name : D:\Седьмая руна\Sedmaja.runa.s01e01.2015.WEBRip.RG.Russkie.serialy.avi
Format : AVI
Format/Info : Audio Video Interleave
File size : 654 MiB
Duration : 48mn 6s
Overall bit rate : 1 902 Kbps
Writing application : VirtualDubMod 1.5.10.3 | www.virtualdub-fr.org || (build 2550/release)
Writing library : VirtualDubMod build 2550/release
Video
ID : 0
Format : MPEG-4 Visual
Format profile : Advanced Simple@L5
Format settings, BVOP : 2
Format settings, QPel : No
Format settings, GMC : No warppoints
Format settings, Matrix : Custom
Codec ID : XVID
Codec ID/Hint : XviD
Duration : 48mn 6s
Bit rate : 1 700 Kbps
Width : 720 pixels
Height : 400 pixels
Display aspect ratio : 16:9
Frame rate : 25.000 fps
Color space : YUV
Chroma subsampling : 4:2:0
Bit depth : 8 bits
Scan type : Progressive
Compression mode : Lossy
Bits/(Pixel*Frame) : 0.236
Stream size : 585 MiB (89%)
Writing library : XviD 73
Audio
ID : 1
Format : AC-3
Format/Info : Audio Coding 3
Mode extension : CM (complete main)
Format settings, Endianness : Big
Codec ID : 2000
Duration : 48mn 6s
Bit rate mode : Constant
Bit rate : 192 Kbps
Channel(s) : 2 channels
Channel positions : Front: L R
Sampling rate : 48.0 KHz
Bit depth : 16 bits
Compression mode : Lossy
Stream size : 66.1 MiB (10%)
Alignment : Split accross interleaves
Interleave, duration : 40 ms (1.00 video frame)
Interleave, preload duration : 500 ms

Скриншоты








СравнениеСравнение с этой раздачей http://cybertorrent.ru/forum/viewtopic.php?t=4987124
http://screenshotcomparison.com/comparison/132000/picture:7
[cybertorrent.ru].t1154.torrent 
Торрент: Зарегистрирован [ 2019-03-19 18:34 ] · 9B927ED1410DCF2098305B0EAEECB2401626AC72

Скачать .torrent

Скачать

27 KB

Статус: проверено
Скачан: 0 раз
Размер: 5,2 GB
terms.php
Показать сообщения:    

Текущее время: 22-Окт 08:34

Часовой пояс: UTC ± 0



Вы не можете начинать темы
Вы не можете отвечать на сообщения
Вы не можете редактировать свои сообщения
Вы не можете удалять свои сообщения
Вы не можете голосовать в опросах
Вы не можете прикреплять файлы к сообщениям
Вы можете скачивать файлы