Статистика раздачи
Размер:  700 MB   |    Зарегистрирован:  3 месяца 6 дней   |    Скачан:  0 раз

Полного источника не было: Никогда

 
   
 
 

lopster ®

Пол:
Не указан
Стаж:
3 месяца 6 дней
Сообщений:
612

Петя по дороге в Царствие Небесное Год выпуска: 2009
Жанр: трагикомедия, драма
Продолжительность: 01:36:43
Режиссер: Николай Досталь
В ролях:
Егор Павлов, Мария Звонарева, Артем Кобзев, Юрий Пономаренко, Захар Ронжин, Константин Быков, Александр Коршунов, Роман Мадянов, Светлана Тимофеева-Летуновская, Евгений Редько


1953 год, поселок Кандалакша. Городской дурачок Петя вообразил, что он милиционер, поборник справедливости и порядка, более того, он инспектор ГАИ. У него есть казенная портупея и милицейская фуражка, а в настоящей кобуре пусть и деревянный, но все-таки пистолет. Никто не пытается разубедить его в таком безобидном посягательстве на власть. Даже машины начальника строительства и главного инженера останавливаются после жеста «инспектора Пети».
Он был удостоен расположения и внимания первой красавицы поселка, жены полковника ГБ Богуславского, начальника нескольких окрестных исправительно-трудовых лагерей. А затем наступил роковой март 1953-го, почил бессмертный носитель невиданной власти. Из лагеря сбежал зэк. Петя пустился в погоню за беглецом по снегу, в сопки вместе с поднятыми по тревоге солдатами и охраной. Как же без него могло произойти событие, когда власть требовала от каждого исполнения своего долга?
Доп. информация:
: 5.816/10 (89)
сценарий Михаил Кураев
продюсер Федор Попов
оператор Алишер Хамидходжаев
композитор Алексей Шелыгин

бюджет $2 000 000
сборы в России $16 500
премьера (РФ) 30 июля 2009, «Профит Синема Интернешнл»
релиз на DVD 27 августа 2009, «CP-DIGITAL»

Релиз от: by genadiy
Выпущено : Россия, Стелла
Но, однако же, фильм на удивление интересный, важный, нужный. Он ладно скроен, просто сшит, иногда до смешного просто, многие «кинематографические приемы» видно как сделаны невооруженным глазом, я бы даже сказала — шиты белыми нитками, но дело все не в этом. Фильм удивительно душевный, приятный. Он о ГЛАВНОМ. Можно конечно говорить, что в России всегда любят фильмы про блаженных не от мира сего, всегда их жалеют, всегда хотят показать что вот мол у нас как — дураков мы своих любим и жалеем. Да не в том дело. Фильм о жизни, о том, какая она есть. А в ней всегда есть место людям с разной судьбой, с разной жизненной позицией. В ней всегда есть место сочувствию, надежде, долгу, чести, убеждениям и в итоге нелепой, роковой случайности…
Порадовали все без исключения актерские работы. Порадовал сам подход к созданию кино — не нужно денег, спецэффектов, выстрелов, погонь, фейерверков и взрывов, не нужно дворцов, ковров, дорогих автомобилей и девушек с безупречными прическами и макияжем — нужны просто живые люди, просто хорошие актеры и та натура, которая всегда под рукой и которой в России вдоволь: леса, заснеженные поля, кривенькие дощатые домишки, лающие собаки, старенькие «победы» и т. д. Честь и хвала Н. Досталю за этот фильм.
Качество: DVDRip
Формат: AVI
Видео: 608x336 (1.81:1), 25 fps, XviD build 50 ~878 kbps avg, 0.17 bit/pixel
Аудио: 48 kHz, AC3 Dolby Digital, 2/0 (L,R) ch, ~128.00 kbps avg

СЭМПЛ + ссылка на все раздачи фильма

http://multi-up.com/134995
Петя по дороге в царствие небесное

MI

Код:Общее
Полное имя : C:\otkat\Видео\Петя по дороге в царствие небесное\Petya.Po.Doroge.V.Carstvo.Nebesnoe.2009.O.DVDRip.by.genadiy.avi
Формат : AVI
Формат/Информация : Audio Video Interleave
Размер файла : 700 Мбайт
Продолжительность : 1 ч. 36 м.
Общий поток : 1013 Кбит/сек
Программа кодирования : VirtualDubMod 1.5.4.1 (build 2178/release)
Авторское право : DVDRip by GENADIY
Видео
Идентификатор : 0
Формат : MPEG-4 Visual
Профиль формата : Advanced Simple@L5
Параметр BVOP формата : 1
Параметр QPel формата : Нет
Параметр GMC формата : Без точки перехода
Параметр матрицы формата : Выборочная
Идентификатор кодека : XVID
Идентификатор кодека/Подсказка : XviD
Продолжительность : 1 ч. 36 м.
Битрейт : 878 Кбит/сек
Ширина : 608 пикселей
Высота : 336 пикселей
Соотношение сторон : 16:9
Частота кадров : 25,000 кадров/сек
Цветовое пространство : YUV
Субдискретизация насыщенности : 4:2:0
Битовая глубина : 8 бит
Тип развёртки : Прогрессивная
Метод сжатия : С потерями
Бит/(Пиксели*Кадры) : 0.172
Размер потока : 607 Мбайт (87%)
Библиотека кодирования : XviD 1.2.1 (UTC 2008-12-04)
Аудио
Идентификатор : 1
Формат : AC-3
Формат/Информация : Audio Coding 3
Расширение режима : CM (complete main)
Параметр Endianness формата : Big
Идентификатор кодека : 2000
Продолжительность : 1 ч. 36 м.
Вид битрейта : Постоянный
Битрейт : 128 Кбит/сек
Каналы : 2 канала
Расположение каналов : Front: L R
Частота : 48,0 КГц
Частота кадров : 31,250 кадров/сек (1536 spf)
Метод сжатия : С потерями
Размер потока : 88,5 Мбайт (13%)
Выравнивание : Разделение по промежуткам
Продолжительность промежутка : 96 мс. (2,40 видеокадра)
Время предзагрузки промежутка : 96 мс.

Скриншоты

[cybertorrent.ru].t116.torrent 
Торрент: Зарегистрирован [ 2018-02-15 13:57 ] · 09685BA930474BF8640827FFA6F59B4CD8351E05

Скачать .torrent

Скачать

14 KB

Статус: проверено
Скачан: 0 раз
Размер: 700 MB
Профиль [ЛС]
Показать сообщения:    

Текущее время: 22-Май 00:14

Часовой пояс: UTC ± 0



Вы не можете начинать темы
Вы не можете отвечать на сообщения
Вы не можете редактировать свои сообщения
Вы не можете удалять свои сообщения
Вы не можете голосовать в опросах
Вы не можете прикреплять файлы к сообщениям
Вы можете скачивать файлы