Поговори со мною о любви / Сезон: 1 / Серии: 1-4 из 4 (Артём Насыбулин) [2013, мелодрама, HDTVRip]

Ответить на тему
Статистика раздачи
Размер:  1,82 GB   |    Зарегистрирован:  3 дня   |    Скачан:  0 раз

Полного источника не было: Никогда

   
 
Автор Сообщение

sss777sss ®

Пол: Не указан

Стаж: 10 дней

Сообщений: 60

Создавать темы 19-Мар-2019 18:31

[Цитировать]

Поговори со мною о любви- > Год выпуска: 2013
> Производство: «Кинокомпания Русское»
> Жанр: Мелодрама
> Продолжительность: ~ 44 мин.
> Субтитры: Отсутствуют-> Режиссер: Артём Насыбулин-> В ролях: Карина Андоленко, Игорь Бочкин, Марина Яковлева, Александр Пашков, Артём Михалков, Александр Мякушко, Татьяна Шатилова, Лариса Домаскина, Татьяна Лянник, Екатерина Травова, Роман Полянский, Дарья Егорова, Валентин Варецкий, Ирина Суркова, Кристина Пакарина, Владимир Мельников, Владимир Кебин, Алла Миронова, Виктор Черепанов и др.-> Описание: Таня Петрунина – бойкая и прямодушная деревенская девушка, дочь и правая рука председателя колхоза. Накануне свадьбы жених Гришка изменяет ей с городской кокеткой и без зазрения совести бросает невесту.
В деревне начинают судачить, удастся ли теперь Тане с ее бойким нравом найти вторую половину. Тем временем на ее сердце уже метят глава агрохолдинга Малахов и новый деревенский шофер Петр....
-
> Релиз группы -> Все раздачи сериала
> Семпл
> Кино-Театр-> Качество: HDTVRip
> Формат: AVI
> Видео кодек: XviD
> Аудио кодек: AC3
> Видео: 720x400 (1.80:1), 25 fps, XviD build 73 ~1357 kbps avg, 0.19 bit/pixel
> Аудио: 48 kHz, AC3 Dolby Digital, 2/0 (L,R) ch, ~192.00 kbps avg

MediaInfo

Код:General
Complete name : D:\Поговори со мною о любви\Pogovori.so.mnoyu.o.lyubvi .s01e01.2013.HDTVRip.RG.Russkie.serialy.avi
Format : AVI
Format/Info : Audio Video Interleave
File size : 986 MiB
Duration : 1h 28mn
Overall bit rate : 1 559 Kbps
Writing application : VirtualDubMod 1.5.10.3 | www.virtualdub-fr.org || (build 2550/release)
Writing library : VirtualDubMod build 2550/release
Video
ID : 0
Format : MPEG-4 Visual
Format profile : Advanced Simple@L5
Format settings, BVOP : 2
Format settings, QPel : No
Format settings, GMC : No warppoints
Format settings, Matrix : Custom
Codec ID : XVID
Codec ID/Hint : XviD
Duration : 1h 28mn
Bit rate : 1 357 Kbps
Width : 720 pixels
Height : 400 pixels
Display aspect ratio : 16:9
Frame rate : 25.000 fps
Color space : YUV
Chroma subsampling : 4:2:0
Bit depth : 8 bits
Scan type : Progressive
Compression mode : Lossy
Bits/(Pixel*Frame) : 0.188
Stream size : 858 MiB (87%)
Writing library : XviD 73
Audio
ID : 1
Format : AC-3
Format/Info : Audio Coding 3
Mode extension : CM (complete main)
Format settings, Endianness : Big
Codec ID : 2000
Duration : 1h 28mn
Bit rate mode : Constant
Bit rate : 192 Kbps
Channel(s) : 2 channels
Channel positions : Front: L R
Sampling rate : 48.0 KHz
Bit depth : 16 bits
Compression mode : Lossy
Stream size : 121 MiB (12%)
Alignment : Split accross interleaves
Interleave, duration : 40 ms (1.00 video frame)
Interleave, preload duration : 500 ms

Скриншоты








СравнениеСравнение с этой раздачей http://rutracker.org/forum/viewtopic.php?t=4523129
http://screenshotcomparison.com/comparison/131464/picture:7

Если ваш рейтинг упадет ниже 0,3, вы не сможете скачивать торренты! Подробнее о рейтинге.

[cybertorrent.ru].t1161.torrent 
Торрент: Зарегистрирован [ 2019-03-19 18:34 ] · FB15916E19C85EEBCA01C0CD1770D0F9D3CE8CBD

Скачать .torrent

Скачать

19 KB

Статус: проверено
Скачан: 0 раз
Размер: 1,82 GB
terms.php
[Профиль] [ЛС]
Показать сообщения:    
Ответить на тему

Текущее время: 23-Мар 06:48

Часовой пояс: UTC ± 0



Вы не можете начинать темы
Вы не можете отвечать на сообщения
Вы не можете редактировать свои сообщения
Вы не можете удалять свои сообщения
Вы не можете голосовать в опросах
Вы не можете прикреплять файлы к сообщениям
Вы можете скачивать файлы