Статистика раздачи
Размер:  1,18 GB   |    Зарегистрирован:  7 месяцев 4 дня   |    Скачан:  0 раз

Полного источника не было: Никогда

Личеров:  1  [  0 KB/s  ]  
 
   
 
 

Ласточка ®

Пол:
Не указан
Стаж:
7 месяцев 5 дней
Сообщений:
453

Чемпион Год выпуска: 1979.
Страна: СССР .
Киностудия: Казахфильм.
Жанр: Детский, семейный, спортивный.
Продолжительность: 01:04:03.
Режиссер: Сергей Шутов.
Автор сценария: Валентина Малиновская.
Оператор: Игорь Вовнянко.
Композитор: Геннадий Гладков.
Художник: Виктор Тихоненко.
В ролях:
Д. Рсаев, Г. Садвакасова, Р. Мухамедъярова, А. Тажбаев, Б. Римова, Д. Жолжаксынов, А. Бейсембаев, А. Бекбергенов, М. Бахтыгереев, Е. Андыбаев.
Описание:
О том, как дружба с весёлой и находчивой девочкой помогла герою фильма преодолеть свою нерешительность и стать победителем в школьных соревнованиях по боксу.
Доп. информация:
Рип saho.
За раздачу спасибо
MMI!!!

Огромное спасибо художнику emeraldos со студии постеров kinozal.tv за великолепный постер!!!
Качество: SATRip
Формат: mpg
Видео кодек: MPEG 2
Аудио кодек: MPEG-1 Audio layer 3
Видео: 720х544 (4:3), 25.0 fps, 2400 Kbps
Аудио: 48.0 KHz, 2 ch., 192 Kbps

MediaInfo

General
Complete name : E:\Chempion.1979.mpeg2.SATRip.by .saho.mpg
Format : MPEG-PS
File size : 1.18 GiB
Duration : 1h 4mn
Overall bit rate : 2 630 Kbps
Video
ID : 224 (0xE0)
Format : MPEG Video
Format version : Version 2
Format profile : Main@Main
Format settings, BVOP : Yes
Format settings, Matrix : Custom
Format settings, GOP : M=3, N=12
Duration : 1h 4mn
Bit rate : 2 400 Kbps
Width : 720 pixels
Height : 544 pixels
Display aspect ratio : 4:3
Frame rate : 25.000 fps
Standard : PAL
Color space : YUV
Chroma subsampling : 4:2:0
Bit depth : 8 bits
Scan type : Interlaced
Scan order : Top Field First
Compression mode : Lossy
Bits/(Pixel*Frame) : 0.245
Time code of first frame : 00:00:00:00
Time code source : Group of pictures header
Stream size : 1.07 GiB (91%)
Color primaries : BT.601 PAL
Transfer characteristics : BT.470 System B, BT.470 System G
Matrix coefficients : BT.601
Audio
ID : 192 (0xC0)
Format : MPEG Audio
Format version : Version 1
Format profile : Layer 2
Mode : Joint stereo
Mode extension : MS Stereo
Duration : 1h 4mn
Bit rate mode : Constant
Bit rate : 192 Kbps
Channel count : 2 channels
Sampling rate : 48.0 KHz
Compression mode : Lossy
Stream size : 88.0 MiB (7%)

Скриншоты


[cybertorrent.ru].t1166.torrent 
Торрент: Зарегистрирован [ 2018-02-16 03:41 ] · ED5922C927556892CFAB4021CE9A59600020E692

Скачать .torrent

Скачать

12 KB

Статус: проверено
Скачан: 0 раз
Размер: 1,18 GB
Профиль [ЛС]
Показать сообщения:    

Текущее время: 20-Сен 14:09

Часовой пояс: UTC ± 0



Вы не можете начинать темы
Вы не можете отвечать на сообщения
Вы не можете редактировать свои сообщения
Вы не можете удалять свои сообщения
Вы не можете голосовать в опросах
Вы не можете прикреплять файлы к сообщениям
Вы можете скачивать файлы
Torrents24.ru открытый BitTorrent Torrents24.pl открытый BitTorrent CyberTorrent.ru открытый BitTorrent BtList.ru рейтинг BitTorrent трекеров Яндекс.Метрика