Статистика раздачи
Размер:  4,33 GB   |    Зарегистрирован:  7 месяцев 8 дней   |    Скачан:  0 раз

Полного источника не было: Никогда

Личеров:  1  [  0 KB/s  ]  
 
   
 
 

Zljuka ®

Пол:
Не указан
Стаж:
7 месяцев 9 дней
Сообщений:
87

Меч в камне / The Sword in the Stone
Страна: США
Жанр: мультфильм, мюзикл, фэнтези, комедия, приключения, семейный
Год выпуска: 1963
Продолжительность: 01:16:24
Перевод: Профессиональный (дублированный)
Субтитры: английские, английские (СС), греческие, русские, румынские, болгарские, украинские, латышские, литовские, хорватские, словенские, эстонские
Оригинальная аудиодорожка: английская
Режиссер: Вольфганг Райтерман / Wolfgang Reitherman
Роли озвучивали: Себастьян Кабот, Рикки Соренсен, Карл Свенсон, Джуниос Мэтьюз, Джинни Тайлер, Марта Вентуорф, Норман Элден, Алан Напье, Ричард Рейтерман, Роберт Рейтерман
Роли дублировали: Александр Клюквин, Томас Шлеккер, Александр Леньков, Алексей Колган, Людмила Гнилова, Сергей Бурунов, Олег Форостенко, Ирина Пономарева, Михаил Георгиу, Александр Баринов
Описание: В стародавние времена в центре Лондона появился громадный камень с замурованным в нем старинным мечом. Золотая надпись на мече гласила, что королем Англии станет тот, кто вытащит этот заколдованный меч, доказав тем самым свою особую силу и право на власть. Пока это не удавалось никому.
А между тем в далекой лесной глуши жил себе 11-летний мальчик Артур, прислуживал в замке и даже не подозревал, что именно ему предначертано в будущем стать великом королем. Но это предвидел живший неподалеку волшебник Мерлин. Он и его ученый филин Архимед стали наставниками парнишки, подвергнув своего юного воспитанника всевозможным испытаниям.
Его поочередно превращали в животных трех разных стихий — рыбу, белку и птицу, чтобы мог он познать правду жизни во всех ее проявлениях и понять, что не в мышцах, а в мудрости и знании и есть настоящая сила человека.
Дополнительные материалы: Музыка и другое, Игры и развлечения, За кулисами Диснея, Короткометражные фильмы
Меню: есть, статичное
Тип релиза: DVD5 (Сжатый)
Контейнер: DVD-Video
Видео: PAL 4:3 (720x576(0.313)) MPEG Video, 25,000 кадр/сек, 3246 Кбит/сек
Аудио: English (Dolby AC-3, 6 ch) 384 Кбит/сек, 48.0 КГц
Аудио 2: Russian (Dolby AC-3, 2 ch) 192 Кбит/сек, 48.0 КГц

Доп. информация по релизу

DVD5 сделан из лицензионного издания от "Видеосервис". Видео не сжималось, меню оставлено. Удалены греческий, румынский и болгарский языки.
Меню запускается только принудительно!

DVDInfo

Size: 4.33 Gb ( 4 537 958 KBytes ) - DVD-5
Enabled regions: 1, 2, 3, 4, 5, 6, 7, 8
VTS_01 :
Play Length: 01:16:24+00:01:12+00:01:33+00:03:04+00:01:51
Video: PAL 4:3 (720x576) VBR
Audio:
English (Dolby AC3, 6 ch)
Greek (Dolby AC3, 6 ch)
Russian (Dolby AC3, 2 ch)
Romanian (Dolby AC3, 2 ch)
Bulgarian (Dolby AC3, 2 ch)
Subtitles:
English
English
Greek
Russian
Romanian
Bulgarian
Ukrainian
Latvian
Lithuanian
Hrvatski
Slovenian
Estonian
English
Greek
Russian
Romanian
Bulgarian
Hrvatski
Slovenian
Greek
Russian
Romanian
Bulgarian
VTS_02 :
Play Length:
Video: PAL 16:9 (720x576) VBR, Auto Pan&Scan
Audio:
Not specified (Dolby AC3, 2 ch)
Subtitles:
Not specified
VTS_03 :
Play Length:
Video: PAL 16:9 (720x576) VBR, Auto Pan&Scan
VTS_04 :
Play Length: 00:00:11
Video: PAL 16:9 (720x576) VBR, Auto Letterboxed
Audio:
Not specified (Dolby AC3, 6 ch)
VTS_05 :
Play Length: 00:00:15
Video: PAL 16:9 (720x576) VBR, Auto Pan&Scan
Audio:
Not specified (Dolby AC3, 6 ch)
Subtitles:
Not specified
VTS_06 :
Play Length: 00:00:17
Video: PAL 16:9 (720x576) VBR, Auto Pan&Scan
Audio:
Not specified (Dolby AC3, 6 ch)
Subtitles:
Greek
Russian
Romanian
VTS_07 :
Play Length: 00:00:15+00:00:30
Video: PAL 4:3 (720x576) VBR
Audio:
Not specified (Dolby AC3, 2 ch)
VTS_08 :
Play Length:
Video: PAL 4:3 (720x576) VBR
VTS_09 :
Play Length: 00:00:07
Video: PAL 16:9 (720x576) VBR, Auto Pan&Scan
Audio:
Not specified (Dolby AC3, 2 ch)
VTS_10 :
Play Length: 00:00:41+00:01:11+00:00:13+00:00:08+00:00:01+00:02:12+00:00:30+00:02:09+00:00:24
Video: PAL 16:9 (720x576) VBR, Auto Pan&Scan
Audio:
Not specified (Dolby AC3, 2 ch)
Not specified (Dolby AC3, 2 ch)
Not specified (Dolby AC3, 2 ch)
Not specified (Dolby AC3, 2 ch)
Subtitles:
Not specified
VTS_11 :
Play Length: 00:16:10+00:07:07+00:09:03
Video: PAL 4:3 (720x576) VBR
Audio:
English (Dolby AC3, 2 ch)
Subtitles:
Greek
Russian
Romanian
Bulgarian
Hrvatski
Slovenian
VTS_12 :
Play Length: 00:08:01
Video: PAL 4:3 (720x576) VBR
Audio:
English (Dolby AC3, 2 ch)
Subtitles:
Greek
Russian
Romanian
Bulgarian
Hrvatski
Slovenian
VTS_13 :
Play Length: 00:07:20
Video: PAL 4:3 (720x576) VBR
Audio:
English (Dolby AC3, 2 ch)
Subtitles:
Greek
Russian
Romanian
Bulgarian
Hrvatski
Slovenian
VTS_14 :
Play Length: 00:00:01
Video: PAL 4:3 (720x576) VBR
Subtitles:
Not specified
VTS_15 :
Play Length: 00:00:01
Video: PAL 4:3 (720x576) VBR
Subtitles:
Not specified
VTS_16 :
Play Length:
Video: PAL 16:9 (720x576) VBR, Auto Letterboxed
VTS_17 :
Play Length:
Video: PAL 4:3 (720x576) VBR
Menu Video:
PAL 16:9 (720x576) VBR
Auto Pan&Scan
Menu Subtitles:
Not specified
Menu English Language Unit :
Root Menu
Subpicture Menu
Audio Menu
Chapter (PTT) Menu

MediaInfo

Общее
Полное имя : mech_v_kamne_dvd5\VIDEO_TS\VTS_01_2.VOB
Формат : MPEG-PS
Размер файла : 1024 Мбайт
Продолжительность : 36 м. 42 с.
Режим общего битрейта : Переменный
Общий поток : 3899 Кбит/сек
Видео
Идентификатор : 224 (0xE0)
Формат : MPEG Video
Версия формата : Version 2
Профиль формата : Main@Main
Параметр BVOP формата : Да
Параметр матрицы формата : Выборочная
Параметр GOP формата : Variable
Продолжительность : 36 м. 42 с.
Вид битрейта : Переменный
Битрейт : 3246 Кбит/сек
Максимальный битрейт : 9800 Кбит/сек
Ширина : 720 пикселей
Высота : 576 пикселей
Соотношение сторон : 4:3
Частота кадров : 25,000 кадров/сек
Стандарт вещания : PAL
Цветовое пространство : YUV
Субдискретизация насыщенности : 4:2:0
Битовая глубина : 8 бит
Тип развёртки : Прогрессивная
Порядок развёртки : Верхнее поле первое
Метод сжатия : С потерями
Бит/(Пиксели*Кадры) : 0.313
Временной код первого кадра : 01:24:00:22
Оригинал временного кода : Group of pictures header
Размер потока : 852 Мбайт (83%)
Аудио #1
Идентификатор : 189 (0xBD)-128 (0x80)
Формат : AC-3
Формат/Информация : Audio Coding 3
Параметр Endianness формата : Big
Режим смешивания : DVD-Video
Продолжительность : 36 м. 42 с.
Вид битрейта : Постоянный
Битрейт : 384 Кбит/сек
Каналы : 6 каналов
Расположение каналов : Front: L C R, Side: L R, LFE
Частота : 48,0 КГц
Частота кадров : 31,250 кадров/сек (1536 spf)
Битовая глубина : 16 бит
Метод сжатия : С потерями
Задержка видео : -440 мс.
Размер потока : 101 Мбайт (10%)
ServiceKind/String : Complete Main
Аудио #2
Идентификатор : 189 (0xBD)-130 (0x82)
Формат : AC-3
Формат/Информация : Audio Coding 3
Параметр Endianness формата : Big
Режим смешивания : DVD-Video
Продолжительность : 36 м. 42 с.
Вид битрейта : Постоянный
Битрейт : 192 Кбит/сек
Каналы : 2 канала
Расположение каналов : Front: L R
Частота : 48,0 КГц
Частота кадров : 31,250 кадров/сек (1536 spf)
Битовая глубина : 16 бит
Метод сжатия : С потерями
Задержка видео : -376 мс.
Размер потока : 50,4 Мбайт (5%)
ServiceKind/String : Complete Main
Текст
Идентификатор : 189 (0xBD)-33 (0x21)
Формат : RLE
Формат/Информация : Run-length encoding
Режим смешивания : DVD-Video
Задержка видео : 2 с. 600 мс.

Скриншоты меню

Скриншоты

Скриншоты доп. материалов

[cybertorrent.ru].t1169.torrent 
Торрент: Зарегистрирован [ 2018-02-16 03:41 ] · 6332E03DCE95AFFDFEE25051016D773B7C4FBFE0

Скачать .torrent

Скачать

14 KB

Статус: проверено
Скачан: 0 раз
Размер: 4,33 GB
Профиль [ЛС]
Показать сообщения:    

Текущее время: 24-Сен 18:03

Часовой пояс: UTC ± 0



Вы не можете начинать темы
Вы не можете отвечать на сообщения
Вы не можете редактировать свои сообщения
Вы не можете удалять свои сообщения
Вы не можете голосовать в опросах
Вы не можете прикреплять файлы к сообщениям
Вы можете скачивать файлы
Torrents24.ru открытый BitTorrent Torrents24.pl открытый BitTorrent CyberTorrent.ru открытый BitTorrent BtList.ru рейтинг BitTorrent трекеров Яндекс.Метрика