Статистика раздачи
Размер:  1,27 GB   |    Зарегистрирован:  3 месяца 7 дней   |    Скачан:  0 раз

Полного источника не было: Никогда

 
   
 
 

lopster ®

Пол:
Не указан
Стаж:
3 месяца 7 дней
Сообщений:
612

Любовь и правда Федора Тютчева (3 серии) Год выпуска: 2003.
Жанр: Историко-биографический фильм.
Продолжительность: 00:25:57 + 00:26:10 + 00:25:58.
(3 серии)
Режиссер: Наталья Бондарчук.
В ролях:
Николай Бурляев, Анна Михалкова, Инга Шатова, Наталья Бондарчук, Ирина Безрукова, Марина Пьянова, Мария Васильева (Бурляева).
Описание:
Фильм снят по мотивам книги Вадима Кожинова «Пророк в своем отечестве Федор Тютчев» с использованием работ Светланы Долгополовой и Екатерины Полтановой.
Фильм отражает период всей жизни поэта, акцентируя те ее трагические моменты, когда жизнь поэта могла прерваться. Разочарование от попранной первой любви, счастливая семейная жизнь, оборвавшаяся на полдороге, измены, влюбленности и рождение пяти дочерей и двух сыновей это не только факты биографии, это горнило страданий, в которых родилась поэзия Тютчева.
Доп. информация:
Страна: Россия .
Киностудия: Захаровский Пушкинский фонд "Истоки".
Автор сценария: Наталья Бондарчук.
Оператор: Владимир Ронгайнен.
Художник: Татьяна Филатова.
Композитор: Иван Бурляев.
Текст от автора читает: Владимир Юматов.
Использованы кадры фильма "Одна любовь души моей" (Режиссер: Наталья Бондарчук).
В роли Александра Пушкина: Сергей Безруков, Владимир Тарасов.
Семейный фольклорный ансамбль под руководством: И. Булаткина.
В фильме использованы фрагменты из произведений: Иогана Себастьяна Баха, Сегея Рахманинова.
Романсы: Ивана Бурляева, Николая Метнера на стихи Федора Тютчева.
В исполнении: Марии Пьяновой, Анастасии Бибичевой.

Большое спасибо D.D. за найденный в сети рип!!!
Все раздачи фильма: Любовь и правда Федора Тютчева
Качество: DVDRip
Формат: AVI

Видео

1-я серия - 720x544 (1.32:1), 25 fps, XviD MPEG-4 ~2008 kbps avg, 0.20 bit/pixel
2-я серия - 720x544 (1.32:1), 25 fps, XviD build 47 ~1798 kbps avg, 0.18 bit/pixel
3-я серия - 720x544 (1.32:1), 25 fps, XviD build 47 ~2372 kbps avg, 0.24 bit/pixel
Аудио: 48 kHz, Microsoft MPEG, 2 ch, ~256.00 kbps avg

MI

Общее
Полное имя : Lyubov.i.pravda.Fyodora.Tyutcheva(3.serii.iz.3).2003.XviD.DVDRip\Lyubov.i.pravda.Fyodora.Tyutcheva(1-ya.seriya.iz.3).2003.XviD.DVDRip.avi
Формат : AVI
Формат/Информация : Audio Video Interleave
Размер файла : 422 Мбайт
Продолжительность : 25 м.
Общий поток : 2274 Кбит/сек
Программа кодирования : VirtualDubMod 1.5.10.2 (build 2540/release)
Библиотека кодирования : VirtualDubMod build 2540/release
Видео
Идентификатор : 0
Формат : MPEG-4 Visual
Профиль формата : Advanced Simple@L5
Параметр BVOP формата : 2
Параметр QPel формата : Нет
Параметр GMC формата : Без точки перехода
Параметр матрицы формата : Default (H.263)
Режим смешивания : Сжатый битовый поток
Идентификатор кодека : XVID
Идентификатор кодека/Подсказка : XviD
Продолжительность : 25 м.
Битрейт : 2008 Кбит/сек
Ширина : 720 пикселей
Высота : 544 пикселя
Соотношение сторон : 4:3
Частота кадров : 25,000 кадров/сек
Цветовое пространство : YUV
Субдискретизация насыщенности : 4:2:0
Битовая глубина : 8 бит
Тип развёртки : Прогрессивная
Метод сжатия : С потерями
Бит/(Пиксели*Кадры) : 0.205
Размер потока : 373 Мбайт (88%)
Библиотека кодирования : XviD 1.2.0.dev47 (UTC 2006-11-01)
Аудио
Идентификатор : 1
Формат : MPEG Audio
Версия формата : Version 1
Профиль формата : Layer 2
Идентификатор кодека : 50
Продолжительность : 25 м.
Вид битрейта : Постоянный
Битрейт : 256 Кбит/сек
Каналы : 2 канала
Частота : 48,0 КГц
Метод сжатия : С потерями
Размер потока : 47,5 Мбайт (11%)
Выравнивание : Соединение по промежуткам
Продолжительность промежутка : 40 мс. (1,00 видеокадр)
Время предзагрузки промежутка : 504 мс.

Скриншоты

[cybertorrent.ru].t118.torrent 
Торрент: Зарегистрирован [ 2018-02-15 13:57 ] · A97B1A7F7650A5E9065AAB55404321974CFAEDF3

Скачать .torrent

Скачать

13 KB

Статус: проверено
Скачан: 0 раз
Размер: 1,27 GB
Профиль [ЛС]
Показать сообщения:    

Текущее время: 23-Май 07:14

Часовой пояс: UTC ± 0



Вы не можете начинать темы
Вы не можете отвечать на сообщения
Вы не можете редактировать свои сообщения
Вы не можете удалять свои сообщения
Вы не можете голосовать в опросах
Вы не можете прикреплять файлы к сообщениям
Вы можете скачивать файлы