Статистика раздачи
Размер:  1,69 GB   |    Зарегистрирован:  3 месяца 12 дней   |    Скачан:  0 раз

Полного источника не было: Никогда

 
   
 
 

lopster ®

Пол:
Не указан
Стаж:
3 месяца 12 дней
Сообщений:
612

Дом для богатых
Год выпуска: 2000
Жанр: драма
Продолжительность: 01:55:59
Режиссер: Владимир Фокин
В ролях: Валентин Гафт, Владимир Еремин, Константин Хабенский, Юрий Степанов, Валерий Баринов, Сергей Виноградов, Полина Фокина, Татьяна Окуневская, Евгений Сидихин, Ирина Гринева, Антонина Дмитриева, Любава Аристархова, Елена Кучеренко, Валерий Гаркалин, Лариса Лужина, Елена Романова, Дарья Михайлова, Юрий Назаров, Владимир Стержаков, Любовь Германова, Сергей Шеховцов, Нина Персиянинова, Ирина Знаменщикова, Алексей Кирющенко, Андрей Бутин, Алексей Карпов, Данила Перов, Марат Рафиков
Описание:Квартира в старом московском особняке — основное место действия и одновременно главное "действующее лицо" фильма. В середине 19 века промотавшийся дворянин Бурковский продает родовой дом и с этого момента начинаются превращения квартиры, переплетаясь с судьбами людей ее населявших: от народовладельцев до большевистских комиссаров, от страшной коммуналки до воссоздания в первоначальном виде шикарных апартаментов новым русским Румяновым — популярным сатириком, поэтом, артистом. Хозяева и постояльцы, аристократы и мещане, верующие и атеисты — каждый из множества героев прожил свою единственную жизнь так, как считал правильным и в то время, которое ему выпало...
Доп. информация: Приз "Бронзовый пегас" режиссеру В. Фокину на кинофестивале "Московский пегас" в 2000 году.
Номинация на Национальную премию кинокритики и кинопрессы "Золотой Овен" в категории "Лучший сценарий (Анатолий Гребнев) в 2000 году. Специальный диплом жюри белорусских кинематографистов за изобразительное решение фильма Л. Кусаковой, М. Карташову на международном кинофестивале стран СНГ и Балтии "Листопад" в Минске в 2000 году. "Ника" в категории "Лучшая сценарная работа" (Анатолий Гребнев) в 2000 году.
Сценарий: Анатолий Гребнев
Композитор: Владимир Дашкевич
Исходник: http://cybertorrent.ru/viewtopic.php?t=2257939
Все раздачи фильма: Дом для богатых
Качество видео: DVDRip
Формат видео: AVI
Видео: 576x432 (1.33:1), 29.970 fps, XviD MPEG-4 ~1886 kbps avg, 0.25 bit/pixel
Аудио: 48 kHz, MPEG Layer 3, 2 ch, ~192.00 kbps avg

MI

Код:Общее
Полное имя : C:\otkat\Видео\Дом для богатых\dom_dlja_bogatyih_dvdip_new_.avi
Формат : AVI
Формат/Информация : Audio Video Interleave
Размер файла : 1,69 Гбайт
Продолжительность : 1 ч. 55 м.
Общий поток : 2090 Кбит/сек
Программа кодирования : VirtualDubMod 1.5.10.2 (build 2540/release)
Библиотека кодирования : VirtualDubMod build 2540/release
Видео
Идентификатор : 0
Формат : MPEG-4 Visual
Профиль формата : Advanced Simple@L5
Параметр BVOP формата : 2
Параметр QPel формата : Нет
Параметр GMC формата : Без точки перехода
Параметр матрицы формата : Default (H.263)
Режим смешивания : Сжатый битовый поток
Идентификатор кодека : XVID
Идентификатор кодека/Подсказка : XviD
Продолжительность : 1 ч. 55 м.
Битрейт : 1886 Кбит/сек
Ширина : 576 пикселей
Высота : 432 пикселя
Соотношение сторон : 4:3
Частота кадров : 29,970 (29970/1000) кадров/сек
Цветовое пространство : YUV
Субдискретизация насыщенности : 4:2:0
Битовая глубина : 8 бит
Тип развёртки : Прогрессивная
Метод сжатия : С потерями
Бит/(Пиксели*Кадры) : 0.253
Размер потока : 1,53 Гбайт (90%)
Библиотека кодирования : XviD 1.2.1 (UTC 2008-12-04)
Аудио
Идентификатор : 1
Формат : MPEG Audio
Версия формата : Version 1
Профиль формата : Layer 3
Идентификатор кодека : 55
Идентификатор кодека/Подсказка : MP3
Продолжительность : 1 ч. 55 м.
Вид битрейта : Постоянный
Битрейт : 192 Кбит/сек
Каналы : 2 канала
Частота : 48,0 КГц
Метод сжатия : С потерями
Размер потока : 159 Мбайт (9%)
Выравнивание : Соединение по промежуткам
Продолжительность промежутка : 33 мс. (1,00 видеокадр)
Время предзагрузки промежутка : 504 мс.
Библиотека кодирования : LAME3.96r
Настройки программы : -m s -V 4 -q 7 -lowpass 19.5 -b 192

Скриншоты

[cybertorrent.ru].t119.torrent 
Торрент: Зарегистрирован [ 2018-02-15 13:57 ] · 092EBBC48CC7DE70AA94DA12B8D17292C4E768C2

Скачать .torrent

Скачать

17 KB

Статус: проверено
Скачан: 0 раз
Размер: 1,69 GB
Профиль [ЛС]
Показать сообщения:    

Текущее время: 28-Май 08:03

Часовой пояс: UTC ± 0



Вы не можете начинать темы
Вы не можете отвечать на сообщения
Вы не можете редактировать свои сообщения
Вы не можете удалять свои сообщения
Вы не можете голосовать в опросах
Вы не можете прикреплять файлы к сообщениям
Вы можете скачивать файлы