Статистика раздачи
Размер:  4,2 GB   |    Зарегистрирован:  7 месяцев 5 дней   |    Скачан:  0 раз

Полного источника не было: Никогда

Личеров:  1  [  0 KB/s  ]  
 
   
 
 

Gomer ®

Пол:
Не указан
Стаж:
7 месяцев 6 дней
Сообщений:
40

Гриффины / Family Guy
Год выпуска: 2006-2007
Страна: США
Жанр: Комедия
Продолжительность: 18 серий по ~22 минуты
Перевод: Профессиональный (многоголосый, закадровый) 2x2
Режиссер: Seth MacFarlane
В ролях: Seth MacFarlane, Alex Borstein, Seth Green, Chris Griffin, Mila Kunis, Mike Henry, Danny Smith, Patrick Warburton, Lori Alan
Описание: "Гриффины" (Family Guy) - анимационное ТВ-Шоу, созданное Сетом МакФерлайном (Seth MacFarlane) для телеканала FOX. Как нетрудно догадаться, главными героями шоу является семейка Гриффинов: тупой, но полный сумашедших идей, составляющих львиную долю шуток сериала, отец семейства Питер; его любящя и терпеливая жена Лойс, всеми силами пытающаяся превратить Гриффинов в нормальную семью; их интеллектуально развитый не по годам, вынашивающий идею мирового господства младший сын Стьюи; дочь-ботаник, обречённая из-за этого на одиночество и непонимание как в школе так и дома, Мэг; и 13-ти летний отсталый в развитии лет на 10, что прекрасно видно по картинке (второй слева), сын Крис. Также полноценным членом семьи является пёс Брайн - склонный к меланхолии эстет, спокойно наблюдающий с бокалом вина в лапе над приключениями Питера и остальных членов семьи (и это при всём притом, что остальные собаки в сериале не являются очеловеченными).
Качество: DVDRip-AVC
Формат: MKV
Видео: x264, 720x480, 23.976 fps, ~ 800 kbps
Аудио 1: Русский DD 2.0 - 192 kb/s;
Аудио 2: Английский DD 5.1 - 448 kb/s
Субтитры: Английские

Скриншоты

MI

Общее
Уникальный идентификатор : 230909132183534105044161386353356974773 (0xADB77B309C0FC71EA4CC03F44A402AB5)
Полное имя : D:\Downloads\Family.Guy.S05.HQ-DVDRip.x264.MIF\Family.Guy.5x01.Stewie.Loves.Lois.DVDRip.x264.MIF.mkv
Формат : Matroska
Версия формата : Version 2
Размер файла : 233 Мбайт
Продолжительность : 21 м.
Общий поток : 1492 Кбит/сек
Дата кодирования : UTC 2009-11-21 19:47:29
Программа кодирования : mkvmerge v2.9.7 ('Tenderness') built on Jul 1 2009 18:43:35
Библиотека кодирования : libebml v0.7.7 + libmatroska v0.8.1
Видео
Идентификатор : 1
Формат : AVC
Формат/Информация : Advanced Video Codec
Профиль формата : High@L3.1
Параметр CABAC формата : Да
Параметр ReFrames формата : 12 кадров
Идентификатор кодека : V_MPEG4/ISO/AVC
Продолжительность : 21 м.
Битрейт : 849 Кбит/сек
Ширина : 716 пикселей
Высота : 480 пикселей
Соотношение сторон : 4:3
Соотношение сторон в оригинале : 3:2
Режим частоты кадров : Постоянный
Частота кадров : 23,976 кадра/сек
Цветовое пространство : YUV
Субдискретизация насыщенности : 4:2:0
Битовая глубина : 8 бит
Тип развёртки : Прогрессивная
Бит/(Пиксели*Кадры) : 0.103
Размер потока : 128 Мбайт (55%)
Библиотека кодирования : x264 core 65 r999M cc51047
Настройки программы : cabac=1 / ref=12 / deblock=1:1:1 / analyse=0x3:0x113 / me=umh / subme=8 / psy_rd=0.6:0.0 / mixed_ref=1 / me_range=16 / chroma_me=1 / trellis=2 / 8x8dct=1 / cqm=0 / deadzone=21,11 / chroma_qp_offset=-2 / threads=3 / nr=0 / decimate=1 / mbaff=0 / bframes=16 / b_pyramid=1 / b_adapt=1 / b_bias=0 / direct=3 / wpredb=0 / keyint=250 / keyint_min=25 / scenecut=40(pre) / rc=2pass / bitrate=849 / ratetol=1.0 / qcomp=0.60 / qpmin=10 / qpmax=51 / qpstep=4 / cplxblur=20.0 / qblur=0.5 / ip_ratio=1.40 / pb_ratio=1.30 / aq=0
Язык : English
Default : Да
Forced : Нет
Аудио #1
Идентификатор : 2
Формат : AC-3
Формат/Информация : Audio Coding 3
Расширение режима : CM (complete main)
Параметр Endianness формата : Big
Идентификатор кодека : A_AC3
Продолжительность : 21 м.
Вид битрейта : Постоянный
Битрейт : 192 Кбит/сек
Каналы : 2 канала
Расположение каналов : Front: L R
Частота : 48,0 КГц
Метод сжатия : С потерями
Размер потока : 30,0 Мбайт (13%)
Заголовок : DD 2.0 by MIF
Язык : Russian
Default : Да
Forced : Нет
Аудио #2
Идентификатор : 3
Формат : AC-3
Формат/Информация : Audio Coding 3
Расширение режима : CM (complete main)
Параметр Endianness формата : Big
Идентификатор кодека : A_AC3
Продолжительность : 21 м.
Вид битрейта : Постоянный
Битрейт : 448 Кбит/сек
Каналы : 6 каналов
Расположение каналов : Front: L C R, Side: L R, LFE
Частота : 48,0 КГц
Метод сжатия : С потерями
Размер потока : 69,9 Мбайт (30%)
Заголовок : DD 5.1
Язык : English
Default : Нет
Forced : Нет
Текст
Идентификатор : 4
Формат : UTF-8
Идентификатор кодека : S_TEXT/UTF8
Идентификатор кодека/Информация : UTF-8 Plain Text
Язык : English
Default : Нет
Forced : Нет
[cybertorrent.ru].t1198.torrent 
Торрент: Зарегистрирован [ 2018-02-16 03:41 ] · 7E254C9D863EB36D770C4AF8254934ED485371D8

Скачать .torrent

Скачать

13 KB

Статус: проверено
Скачан: 0 раз
Размер: 4,2 GB
Профиль [ЛС]
Показать сообщения:    

Текущее время: 21-Сен 11:26

Часовой пояс: UTC ± 0



Вы не можете начинать темы
Вы не можете отвечать на сообщения
Вы не можете редактировать свои сообщения
Вы не можете удалять свои сообщения
Вы не можете голосовать в опросах
Вы не можете прикреплять файлы к сообщениям
Вы можете скачивать файлы
Torrents24.ru открытый BitTorrent Torrents24.pl открытый BitTorrent CyberTorrent.ru открытый BitTorrent BtList.ru рейтинг BitTorrent трекеров Яндекс.Метрика