Статистика раздачи
Размер:  1,17 GB   |    Зарегистрирован:  3 месяца 7 дней   |    Скачан:  0 раз

Полного источника не было: Никогда

 
   
 
 

lopster ®

Пол:
Не указан
Стаж:
3 месяца 7 дней
Сообщений:
612

Самая лучшая бабушка Год выпуска: 2009
Жанр: Мелодрама
Продолжительность: 01:17:17
Режиссер: Елена Жигаева
В ролях: Артем Лайнер, Ирина Муравьева, Ирина Купченко, Владимир Епифанцев, Игорь Ясулович
Описание: Мальчик Гоша после смерти мамы живет с отцом. Посчитав, что Гоше необходима женская ласка, его бабушка по маминой линии - Людмила Марковна, в прошлом прима-балерина Большого театра, приезжает навестить зятя и внука. Другая бабушка малыша, Анна Семеновна также полагает, что без женщины в доме - никуда и тоже приезжает к ним в гости. Обе дамы просто обожают внука, а друг друга терпеть не могут. И между ними начинается война за любовь Гоши....-Все раздачи фильма: Самая лучшая бабушка-Доп. информация: Релиз: -Качество: SATRip
Формат: AVI
Видео кодек: XviD
Аудио кодек: MP3
Видео: 720x416 (1.73:1), 25 fps, XviD MPEG-4 ~1971 kbps avg, 0.26 bit/pixel
Аудио: 48 kHz, MPEG Layer 3, 2 ch, ~192.00 kbps avg

MI

Код:Общее
Полное имя : C:\otkat\Видео\Самая лучшая бабушка\Samaja.luchschaja.Babuschka.2009.XviD.SATRip.avi
Формат : AVI
Формат/Информация : Audio Video Interleave
Размер файла : 1,17 Гбайт
Продолжительность : 1 ч. 17 м.
Общий поток : 2171 Кбит/сек
Программа кодирования : VirtualDubMod 1.5.4.1 (build 2178/release)
Библиотека кодирования : VirtualDubMod build 2178/release
Видео
Идентификатор : 0
Формат : MPEG-4 Visual
Профиль формата : Advanced Simple@L5
Параметр BVOP формата : 1
Параметр QPel формата : Нет
Параметр GMC формата : Без точки перехода
Параметр матрицы формата : Выборочная
Идентификатор кодека : XVID
Идентификатор кодека/Подсказка : XviD
Продолжительность : 1 ч. 17 м.
Битрейт : 1972 Кбит/сек
Ширина : 720 пикселей
Высота : 416 пикселей
Соотношение сторон : 1,731
Частота кадров : 25,000 кадров/сек
Цветовое пространство : YUV
Субдискретизация насыщенности : 4:2:0
Битовая глубина : 8 бит
Тип развёртки : Прогрессивная
Метод сжатия : С потерями
Бит/(Пиксели*Кадры) : 0.263
Размер потока : 1,06 Гбайт (91%)
Библиотека кодирования : XviD 1.2.1 (UTC 2008-12-04)
Аудио
Идентификатор : 1
Формат : MPEG Audio
Версия формата : Version 1
Профиль формата : Layer 3
Режим : Joint stereo
Расширение режима : MS Stereo
Идентификатор кодека : 55
Идентификатор кодека/Подсказка : MP3
Продолжительность : 1 ч. 17 м.
Вид битрейта : Постоянный
Битрейт : 192 Кбит/сек
Каналы : 2 канала
Частота : 48,0 КГц
Метод сжатия : С потерями
Размер потока : 106 Мбайт (9%)
Выравнивание : Соединение по промежуткам
Продолжительность промежутка : 80 мс. (2,00 видеокадра)
Время предзагрузки промежутка : 504 мс.
Библиотека кодирования : LAME3.97
Настройки программы : -m j -V 4 -q 2 -lowpass 18.6 -b 192

Скриншоты


[cybertorrent.ru].t121.torrent 
Торрент: Зарегистрирован [ 2018-02-15 13:57 ] · 9BBBB7607EEB842CA30A1F98827C9DD8A0B515BB

Скачать .torrent

Скачать

12 KB

Статус: проверено
Скачан: 0 раз
Размер: 1,17 GB
Профиль [ЛС]
Показать сообщения:    

Текущее время: 23-Май 07:24

Часовой пояс: UTC ± 0



Вы не можете начинать темы
Вы не можете отвечать на сообщения
Вы не можете редактировать свои сообщения
Вы не можете удалять свои сообщения
Вы не можете голосовать в опросах
Вы не можете прикреплять файлы к сообщениям
Вы можете скачивать файлы