Статистика раздачи
Размер:  35,69 GB   |    Зарегистрирован:  6 месяцев 30 дней   |    Скачан:  0 раз

Полного источника не было: Никогда

   
 

Гость ®

Пол:
Не указан

Убойная сила
Производство: ОРТ, кинокомпания "Урсус-Фильм"
Жанр: детектив, боевик, комедия, криминал
Год выпуска: 2001
Продолжительность: ~ 48:00
Субтитры: Русские (внешние)
Режиссёр: Евгений Аксёнов, Вячеслав Сорокин, Сергей Снежкин
В ролях: Константин Хабенский, Андрей Федорцов, Евгений Ганелин, Сергей Кошонин, Семён Стругачев, Виктор Соловьёв, Александр Тютрюмов, Евгений Леонов-Гладышев, Виктор Костецкий, Виктор Бычков, Юлия Рудина, Владимир Ерёмин, Андрей Краско, Анна Табанина, Валерий Кухарешин, Сергей Мурзин, Андрей Толубеев, Дмитрий Нагиев, Роман Емельянов, Ли Цзянвэнь, Шерхан Абилов, Ян Цапник, Егор Новокшонов, Олег Андреев, Александр Карпухов
Описание: Герои направляются в один из временных отделов милиции Чечни. Наряду с динамичной детективной интригой показаны будни милиционеров и местных жителей. Плахов, Рогов и Любимов попадают как в комичные, так и в тяжелые, трагические ситуации. На войне у каждого свой предел прочности. Перед каждым возникает выбор, при этом на кон зачастую ставится жизнь. Но повествование лишено ура-патриотизма и пафоса, оно максимально приближено к реальной обстановке, в которой несут свою службу обычные милиционеры.
Доп. информация:
Автор релиза -
Исходник аудио и видео - HDTV TS 1080i - моя запись с канала Первый HD (регион Москва)
Исходник субтитров - DVB TS 576i - моя запись с канала Первый (регион Урал)
Авторы русских субтитров - М.ДВОРАК, А.СОЛОНИЦКИЙ, О.СУСЛИНА, А.СТЕПАНОВА, И.КИРИК, К.ФРЕГЕР, А.ГОЛУБКОВА / Первый канал, 2019г.
Рекламы нет!
Все раздачи сериала




Качество видео: HDTV 1080i
Формат видео: TS
Видео кодек: MPEG-4
Аудио кодек 1: МР2
Аудио кодек 2: AC3
Видео: 1920x1080 (16:9), 25.000 fps, ~10000 kbps, ~ 0.193 bit/pixel
Аудио 1: 48000 Гц, 2 ch, 192 kbps
Аудио 2: 48000 Гц, 2 ch, 384 kbps
Формат субтитров: softsub (SRT)

MediaInfo

Общее
Идентификатор : 1 (0x1)
Полное имя : D:\Убойная.сила.Сезон.3.2001.HDTV.1080i-ylnian\01.Предел.прочности.1.HDTV.1080i-ylnian.ts
Формат : MPEG-TS
Размер файла : 3,18 Гбайт
Продолжительность : 50 м. 47 с.
Режим общего битрейта : Переменный
Общий поток : 8970 Кбит/сек
Видео
Идентификатор : 1902 (0x76E)
Идентификатор меню : 92 (0x5C)
Формат : AVC
Формат/Информация : Advanced Video Codec
Профиль формата : High@L4
Настройки формата : CABAC / 3 Ref Frames
Параметр CABAC формата : Да
Параметр RefFrames формата : 3 кадра
Идентификатор кодека : 27
Продолжительность : 50 м. 47 с.
Битрейт : 7913 Кбит/сек
Ширина : 1920 пикселей
Высота : 1080 пикселей
Соотношение сторон : 16:9
Частота кадров : 25,000 кадров/сек
Стандарт вещания : Component
Цветовое пространство : YUV
Субдискретизация насыщенности : 4:2:0
Битовая глубина : 8 бит
Тип развёртки : Чересстрочная
Метод сохранения типа развёртки : Раздельные поля
Порядок развёртки : Верхнее поле первое
Бит/(Пиксели*Кадры) : 0.153
Размер потока : 2,81 Гбайт (88%)
Цветовой диапазон : Limited
Основные цвета : BT.709
Характеристики трансфера : BT.709
Коэффициенты матрицы : BT.709
Аудио #1
Идентификатор : 2902 (0xB56)
Идентификатор меню : 92 (0x5C)
Формат : MPEG Audio
Версия формата : Version 1
Профиль формата : Layer 2
Идентификатор кодека : 3
Продолжительность : 50 м. 47 с.
Вид битрейта : Постоянный
Битрейт : 224 Кбит/сек
Каналы : 2 канала
Частота : 48,0 КГц
Частота кадров : 41,667 кадра/сек (1152 SPF)
Метод сжатия : С потерями
Задержка видео : -80 мс.
Размер потока : 81,4 Мбайт (2%)
Язык : Russian
Аудио #2
Идентификатор : 3902 (0xF3E)
Идентификатор меню : 92 (0x5C)
Формат : AC-3
Формат/Информация : Audio Coding 3
Коммерческое название : Dolby Digital
Идентификатор кодека : 6
Продолжительность : 50 м. 47 с.
Вид битрейта : Постоянный
Битрейт : 384 Кбит/сек
Каналы : 6 каналов
Channel layout : L R C LFE Ls Rs
Частота : 48,0 КГц
Частота кадров : 31,250 кадров/сек (1536 SPF)
Битовая глубина : 16 бит
Метод сжатия : С потерями
Задержка видео : -80 мс.
Размер потока : 139 Мбайт (4%)
Язык : Russian
ServiceKind/String : Complete Main
Общее
Полное имя : D:\Убойная.сила.Сезон.3.2001.HDTV.1080i-ylnian\01.Предел.прочности.1.HDTV.1080i-ylnian_rus.srt
Размер файла : 59,9 Кбайт
Общее
Идентификатор : 1 (0x1)
Полное имя : D:\Убойная.сила.Сезон.3.2001.HDTV.1080i-ylnian\02.Предел.прочности.2.HDTV.1080i-ylnian.ts
Формат : MPEG-TS
Размер файла : 3,05 Гбайт
Продолжительность : 47 м. 43 с.
Режим общего битрейта : Переменный
Общий поток : 9140 Кбит/сек
Видео
Идентификатор : 1902 (0x76E)
Идентификатор меню : 92 (0x5C)
Формат : AVC
Формат/Информация : Advanced Video Codec
Профиль формата : High@L4
Настройки формата : CABAC / 3 Ref Frames
Параметр CABAC формата : Да
Параметр RefFrames формата : 3 кадра
Идентификатор кодека : 27
Продолжительность : 47 м. 43 с.
Битрейт : 8074 Кбит/сек
Ширина : 1920 пикселей
Высота : 1080 пикселей
Соотношение сторон : 16:9
Частота кадров : 25,000 кадров/сек
Стандарт вещания : Component
Цветовое пространство : YUV
Субдискретизация насыщенности : 4:2:0
Битовая глубина : 8 бит
Тип развёртки : Чересстрочная
Метод сохранения типа развёртки : Раздельные поля
Порядок развёртки : Верхнее поле первое
Бит/(Пиксели*Кадры) : 0.156
Размер потока : 2,69 Гбайт (88%)
Цветовой диапазон : Limited
Основные цвета : BT.709
Характеристики трансфера : BT.709
Коэффициенты матрицы : BT.709
Аудио #1
Идентификатор : 2902 (0xB56)
Идентификатор меню : 92 (0x5C)
Формат : MPEG Audio
Версия формата : Version 1
Профиль формата : Layer 2
Идентификатор кодека : 3
Продолжительность : 47 м. 43 с.
Вид битрейта : Постоянный
Битрейт : 224 Кбит/сек
Каналы : 2 канала
Частота : 48,0 КГц
Частота кадров : 41,667 кадра/сек (1152 SPF)
Метод сжатия : С потерями
Задержка видео : -40 мс.
Размер потока : 76,5 Мбайт (2%)
Язык : Russian
Аудио #2
Идентификатор : 3902 (0xF3E)
Идентификатор меню : 92 (0x5C)
Формат : AC-3
Формат/Информация : Audio Coding 3
Коммерческое название : Dolby Digital
Идентификатор кодека : 6
Продолжительность : 47 м. 43 с.
Вид битрейта : Постоянный
Битрейт : 384 Кбит/сек
Каналы : 6 каналов
Channel layout : L R C LFE Ls Rs
Частота : 48,0 КГц
Частота кадров : 31,250 кадров/сек (1536 SPF)
Битовая глубина : 16 бит
Метод сжатия : С потерями
Задержка видео : -40 мс.
Размер потока : 131 Мбайт (4%)
Язык : Russian
ServiceKind/String : Complete Main
Общее
Полное имя : D:\Убойная.сила.Сезон.3.2001.HDTV.1080i-ylnian\02.Предел.прочности.2.HDTV.1080i-ylnian_rus.srt
Формат : SubRip
Размер файла : 54,0 Кбайт
Текст
Формат : SubRip
Метод сжатия : Без потерь
Общее
Идентификатор : 1 (0x1)
Полное имя : D:\Убойная.сила.Сезон.3.2001.HDTV.1080i-ylnian\03.Предел.прочности.3.HDTV.1080i-ylnian.ts
Формат : MPEG-TS
Размер файла : 3,41 Гбайт
Продолжительность : 48 м. 33 с.
Режим общего битрейта : Переменный
Общий поток : 10,1 Мбит/сек
Видео
Идентификатор : 1902 (0x76E)
Идентификатор меню : 92 (0x5C)
Формат : AVC
Формат/Информация : Advanced Video Codec
Профиль формата : High@L4
Настройки формата : CABAC / 3 Ref Frames
Параметр CABAC формата : Да
Параметр RefFrames формата : 3 кадра
Идентификатор кодека : 27
Продолжительность : 48 м. 33 с.
Битрейт : 8943 Кбит/сек
Ширина : 1920 пикселей
Высота : 1080 пикселей
Соотношение сторон : 16:9
Частота кадров : 25,000 кадров/сек
Стандарт вещания : Component
Цветовое пространство : YUV
Субдискретизация насыщенности : 4:2:0
Битовая глубина : 8 бит
Тип развёртки : Чересстрочная
Метод сохранения типа развёртки : Раздельные поля
Порядок развёртки : Верхнее поле первое
Бит/(Пиксели*Кадры) : 0.173
Размер потока : 3,03 Гбайт (89%)
Цветовой диапазон : Limited
Основные цвета : BT.709
Характеристики трансфера : BT.709
Коэффициенты матрицы : BT.709
Аудио #1
Идентификатор : 2902 (0xB56)
Идентификатор меню : 92 (0x5C)
Формат : MPEG Audio
Версия формата : Version 1
Профиль формата : Layer 2
Идентификатор кодека : 3
Продолжительность : 48 м. 33 с.
Вид битрейта : Постоянный
Битрейт : 224 Кбит/сек
Каналы : 2 канала
Частота : 48,0 КГц
Частота кадров : 41,667 кадра/сек (1152 SPF)
Метод сжатия : С потерями
Размер потока : 77,8 Мбайт (2%)
Язык : Russian
Аудио #2
Идентификатор : 3902 (0xF3E)
Идентификатор меню : 92 (0x5C)
Формат : AC-3
Формат/Информация : Audio Coding 3
Коммерческое название : Dolby Digital
Идентификатор кодека : 6
Продолжительность : 48 м. 33 с.
Вид битрейта : Постоянный
Битрейт : 384 Кбит/сек
Каналы : 6 каналов
Channel layout : L R C LFE Ls Rs
Частота : 48,0 КГц
Частота кадров : 31,250 кадров/сек (1536 SPF)
Битовая глубина : 16 бит
Метод сжатия : С потерями
Размер потока : 133 Мбайт (4%)
Язык : Russian
ServiceKind/String : Complete Main
Общее
Полное имя : D:\Убойная.сила.Сезон.3.2001.HDTV.1080i-ylnian\03.Предел.прочности.3.HDTV.1080i-ylnian_rus.srt
Формат : SubRip
Размер файла : 39,0 Кбайт
Текст
Формат : SubRip
Метод сжатия : Без потерь
Общее
Идентификатор : 1 (0x1)
Полное имя : D:\Убойная.сила.Сезон.3.2001.HDTV.1080i-ylnian\04.Предел.прочности.4.HDTV.1080i-ylnian.ts
Формат : MPEG-TS
Размер файла : 3,25 Гбайт
Продолжительность : 48 м. 47 с.
Режим общего битрейта : Переменный
Общий поток : 9543 Кбит/сек
Видео
Идентификатор : 1902 (0x76E)
Идентификатор меню : 92 (0x5C)
Формат : AVC
Формат/Информация : Advanced Video Codec
Профиль формата : High@L4
Настройки формата : CABAC / 3 Ref Frames
Параметр CABAC формата : Да
Параметр RefFrames формата : 3 кадра
Идентификатор кодека : 27
Продолжительность : 48 м. 47 с.
Битрейт : 8458 Кбит/сек
Ширина : 1920 пикселей
Высота : 1080 пикселей
Соотношение сторон : 16:9
Частота кадров : 25,000 кадров/сек
Стандарт вещания : Component
Цветовое пространство : YUV
Субдискретизация насыщенности : 4:2:0
Битовая глубина : 8 бит
Тип развёртки : Чересстрочная
Метод сохранения типа развёртки : Раздельные поля
Порядок развёртки : Верхнее поле первое
Бит/(Пиксели*Кадры) : 0.163
Размер потока : 2,88 Гбайт (89%)
Цветовой диапазон : Limited
Основные цвета : BT.709
Характеристики трансфера : BT.709
Коэффициенты матрицы : BT.709
Аудио #1
Идентификатор : 2902 (0xB56)
Идентификатор меню : 92 (0x5C)
Формат : MPEG Audio
Версия формата : Version 1
Профиль формата : Layer 2
Идентификатор кодека : 3
Продолжительность : 48 м. 47 с.
Вид битрейта : Постоянный
Битрейт : 224 Кбит/сек
Каналы : 2 канала
Частота : 48,0 КГц
Частота кадров : 41,667 кадра/сек (1152 SPF)
Метод сжатия : С потерями
Задержка видео : -120 мс.
Размер потока : 78,2 Мбайт (2%)
Язык : Russian
Аудио #2
Идентификатор : 3902 (0xF3E)
Идентификатор меню : 92 (0x5C)
Формат : AC-3
Формат/Информация : Audio Coding 3
Коммерческое название : Dolby Digital
Идентификатор кодека : 6
Продолжительность : 48 м. 47 с.
Вид битрейта : Постоянный
Битрейт : 384 Кбит/сек
Каналы : 6 каналов
Channel layout : L R C LFE Ls Rs
Частота : 48,0 КГц
Частота кадров : 31,250 кадров/сек (1536 SPF)
Битовая глубина : 16 бит
Метод сжатия : С потерями
Задержка видео : -120 мс.
Размер потока : 134 Мбайт (4%)
Язык : Russian
ServiceKind/String : Complete Main
Общее
Полное имя : D:\Убойная.сила.Сезон.3.2001.HDTV.1080i-ylnian\04.Предел.прочности.4.HDTV.1080i-ylnian_rus.srt
Размер файла : 51,9 Кбайт
Общее
Идентификатор : 1 (0x1)
Полное имя : D:\Убойная.сила.Сезон.3.2001.HDTV.1080i-ylnian\05.Спидвей.HDTV.1080i-ylnian.ts
Формат : MPEG-TS
Размер файла : 3,78 Гбайт
Продолжительность : 48 м. 21 с.
Режим общего битрейта : Переменный
Общий поток : 11,2 Мбит/сек
Видео
Идентификатор : 1902 (0x76E)
Идентификатор меню : 92 (0x5C)
Формат : AVC
Формат/Информация : Advanced Video Codec
Профиль формата : High@L4
Настройки формата : CABAC / 3 Ref Frames
Параметр CABAC формата : Да
Параметр RefFrames формата : 3 кадра
Идентификатор кодека : 27
Продолжительность : 48 м. 21 с.
Битрейт : 10,0 Мбит/сек
Ширина : 1920 пикселей
Высота : 1080 пикселей
Соотношение сторон : 16:9
Частота кадров : 25,000 кадров/сек
Стандарт вещания : Component
Цветовое пространство : YUV
Субдискретизация насыщенности : 4:2:0
Битовая глубина : 8 бит
Тип развёртки : Чересстрочная
Метод сохранения типа развёртки : Раздельные поля
Порядок развёртки : Верхнее поле первое
Бит/(Пиксели*Кадры) : 0.193
Размер потока : 3,38 Гбайт (90%)
Цветовой диапазон : Limited
Основные цвета : BT.709
Характеристики трансфера : BT.709
Коэффициенты матрицы : BT.709
Аудио #1
Идентификатор : 2902 (0xB56)
Идентификатор меню : 92 (0x5C)
Формат : MPEG Audio
Версия формата : Version 1
Профиль формата : Layer 2
Идентификатор кодека : 3
Продолжительность : 48 м. 21 с.
Вид битрейта : Постоянный
Битрейт : 224 Кбит/сек
Каналы : 2 канала
Частота : 48,0 КГц
Частота кадров : 41,667 кадра/сек (1152 SPF)
Метод сжатия : С потерями
Задержка видео : -40 мс.
Размер потока : 77,5 Мбайт (2%)
Язык : Russian
Аудио #2
Идентификатор : 3902 (0xF3E)
Идентификатор меню : 92 (0x5C)
Формат : AC-3
Формат/Информация : Audio Coding 3
Коммерческое название : Dolby Digital
Идентификатор кодека : 6
Продолжительность : 48 м. 21 с.
Вид битрейта : Постоянный
Битрейт : 384 Кбит/сек
Каналы : 6 каналов
Channel layout : L R C LFE Ls Rs
Частота : 48,0 КГц
Частота кадров : 31,250 кадров/сек (1536 SPF)
Битовая глубина : 16 бит
Метод сжатия : С потерями
Задержка видео : -40 мс.
Размер потока : 133 Мбайт (3%)
Язык : Russian
ServiceKind/String : Complete Main
Общее
Полное имя : D:\Убойная.сила.Сезон.3.2001.HDTV.1080i-ylnian\05.Спидвей.HDTV.1080i-ylnian_rus.srt
Формат : SubRip
Размер файла : 59,3 Кбайт
Текст
Формат : SubRip
Метод сжатия : Без потерь
Общее
Идентификатор : 1 (0x1)
Полное имя : D:\Убойная.сила.Сезон.3.2001.HDTV.1080i-ylnian\06.Закон.перспективы.HDTV.1080i-ylnian.ts
Формат : MPEG-TS
Размер файла : 3,63 Гбайт
Продолжительность : 46 м. 29 с.
Режим общего битрейта : Переменный
Общий поток : 11,2 Мбит/сек
Видео
Идентификатор : 1902 (0x76E)
Идентификатор меню : 92 (0x5C)
Формат : AVC
Формат/Информация : Advanced Video Codec
Профиль формата : High@L4
Настройки формата : CABAC / 3 Ref Frames
Параметр CABAC формата : Да
Параметр RefFrames формата : 3 кадра
Параметр GOP формата : M=4, N=32
Идентификатор кодека : 27
Продолжительность : 46 м. 28 с.
Битрейт : 10,0 Мбит/сек
Ширина : 1920 пикселей
Высота : 1080 пикселей
Соотношение сторон : 16:9
Частота кадров : 25,000 кадров/сек
Стандарт вещания : Component
Цветовое пространство : YUV
Субдискретизация насыщенности : 4:2:0
Битовая глубина : 8 бит
Тип развёртки : Чересстрочная
Метод сохранения типа развёртки : Раздельные поля
Порядок развёртки : Верхнее поле первое
Бит/(Пиксели*Кадры) : 0.193
Размер потока : 3,25 Гбайт (90%)
Цветовой диапазон : Limited
Основные цвета : BT.709
Характеристики трансфера : BT.709
Коэффициенты матрицы : BT.709
Аудио #1
Идентификатор : 2902 (0xB56)
Идентификатор меню : 92 (0x5C)
Формат : MPEG Audio
Версия формата : Version 1
Профиль формата : Layer 2
Идентификатор кодека : 3
Продолжительность : 46 м. 28 с.
Вид битрейта : Постоянный
Битрейт : 224 Кбит/сек
Каналы : 2 канала
Частота : 48,0 КГц
Частота кадров : 41,667 кадра/сек (1152 SPF)
Метод сжатия : С потерями
Задержка видео : -120 мс.
Размер потока : 74,5 Мбайт (2%)
Язык : Russian
Аудио #2
Идентификатор : 3902 (0xF3E)
Идентификатор меню : 92 (0x5C)
Формат : AC-3
Формат/Информация : Audio Coding 3
Коммерческое название : Dolby Digital
Идентификатор кодека : 6
Продолжительность : 46 м. 28 с.
Вид битрейта : Постоянный
Битрейт : 384 Кбит/сек
Каналы : 6 каналов
Channel layout : L R C LFE Ls Rs
Частота : 48,0 КГц
Частота кадров : 31,250 кадров/сек (1536 SPF)
Битовая глубина : 16 бит
Метод сжатия : С потерями
Задержка видео : -120 мс.
Размер потока : 128 Мбайт (3%)
Язык : Russian
ServiceKind/String : Complete Main
Общее
Полное имя : D:\Убойная.сила.Сезон.3.2001.HDTV.1080i-ylnian\06.Закон.перспективы.HDTV.1080i-ylnian_rus.srt
Размер файла : 65,3 Кбайт
Общее
Идентификатор : 1 (0x1)
Полное имя : D:\Убойная.сила.Сезон.3.2001.HDTV.1080i-ylnian\07.Год.глухаря.HDTV.1080i-ylnian.ts
Формат : MPEG-TS
Размер файла : 4,13 Гбайт
Продолжительность : 49 м. 29 с.
Режим общего битрейта : Переменный
Общий поток : 11,9 Мбит/сек
Видео
Идентификатор : 1902 (0x76E)
Идентификатор меню : 92 (0x5C)
Формат : AVC
Формат/Информация : Advanced Video Codec
Профиль формата : High@L4
Настройки формата : CABAC / 3 Ref Frames
Параметр CABAC формата : Да
Параметр RefFrames формата : 3 кадра
Параметр GOP формата : M=4, N=32
Идентификатор кодека : 27
Продолжительность : 49 м. 29 с.
Битрейт : 10,7 Мбит/сек
Ширина : 1920 пикселей
Высота : 1080 пикселей
Соотношение сторон : 16:9
Частота кадров : 25,000 кадров/сек
Стандарт вещания : Component
Цветовое пространство : YUV
Субдискретизация насыщенности : 4:2:0
Битовая глубина : 8 бит
Тип развёртки : Чересстрочная
Метод сохранения типа развёртки : Раздельные поля
Порядок развёртки : Верхнее поле первое
Бит/(Пиксели*Кадры) : 0.207
Размер потока : 3,71 Гбайт (90%)
Цветовой диапазон : Limited
Основные цвета : BT.709
Характеристики трансфера : BT.709
Коэффициенты матрицы : BT.709
Аудио #1
Идентификатор : 2902 (0xB56)
Идентификатор меню : 92 (0x5C)
Формат : MPEG Audio
Версия формата : Version 1
Профиль формата : Layer 2
Идентификатор кодека : 3
Продолжительность : 49 м. 29 с.
Вид битрейта : Постоянный
Битрейт : 224 Кбит/сек
Каналы : 2 канала
Частота : 48,0 КГц
Частота кадров : 41,667 кадра/сек (1152 SPF)
Метод сжатия : С потерями
Размер потока : 79,3 Мбайт (2%)
Язык : Russian
Аудио #2
Идентификатор : 3902 (0xF3E)
Идентификатор меню : 92 (0x5C)
Формат : AC-3
Формат/Информация : Audio Coding 3
Коммерческое название : Dolby Digital
Идентификатор кодека : 6
Продолжительность : 49 м. 29 с.
Вид битрейта : Постоянный
Битрейт : 384 Кбит/сек
Каналы : 6 каналов
Channel layout : L R C LFE Ls Rs
Частота : 48,0 КГц
Частота кадров : 31,250 кадров/сек (1536 SPF)
Битовая глубина : 16 бит
Метод сжатия : С потерями
Размер потока : 136 Мбайт (3%)
Язык : Russian
ServiceKind/String : Complete Main
Общее
Полное имя : D:\Убойная.сила.Сезон.3.2001.HDTV.1080i-ylnian\07.Год.глухаря.HDTV.1080i-ylnian_rus.srt
Формат : SubRip
Размер файла : 70,0 Кбайт
Текст
Формат : SubRip
Метод сжатия : Без потерь
Общее
Идентификатор : 1 (0x1)
Полное имя : D:\Убойная.сила.Сезон.3.2001.HDTV.1080i-ylnian\08.Роль.второго.плана.HDTV.1080i-ylnian.ts
Формат : MPEG-TS
Размер файла : 3,89 Гбайт
Продолжительность : 49 м. 25 с.
Режим общего битрейта : Переменный
Общий поток : 11,3 Мбит/сек
Видео
Идентификатор : 1902 (0x76E)
Идентификатор меню : 92 (0x5C)
Формат : AVC
Формат/Информация : Advanced Video Codec
Профиль формата : High@L4
Настройки формата : CABAC / 3 Ref Frames
Параметр CABAC формата : Да
Параметр RefFrames формата : 3 кадра
Идентификатор кодека : 27
Продолжительность : 49 м. 25 с.
Битрейт : 10,1 Мбит/сек
Ширина : 1920 пикселей
Высота : 1080 пикселей
Соотношение сторон : 16:9
Частота кадров : 25,000 кадров/сек
Стандарт вещания : Component
Цветовое пространство : YUV
Субдискретизация насыщенности : 4:2:0
Битовая глубина : 8 бит
Тип развёртки : Чересстрочная
Метод сохранения типа развёртки : Раздельные поля
Порядок развёртки : Верхнее поле первое
Бит/(Пиксели*Кадры) : 0.195
Размер потока : 3,49 Гбайт (90%)
Цветовой диапазон : Limited
Основные цвета : BT.709
Характеристики трансфера : BT.709
Коэффициенты матрицы : BT.709
Аудио #1
Идентификатор : 2902 (0xB56)
Идентификатор меню : 92 (0x5C)
Формат : MPEG Audio
Версия формата : Version 1
Профиль формата : Layer 2
Идентификатор кодека : 3
Продолжительность : 49 м. 25 с.
Вид битрейта : Постоянный
Битрейт : 224 Кбит/сек
Каналы : 2 канала
Частота : 48,0 КГц
Частота кадров : 41,667 кадра/сек (1152 SPF)
Метод сжатия : С потерями
Задержка видео : -120 мс.
Размер потока : 79,2 Мбайт (2%)
Язык : Russian
Аудио #2
Идентификатор : 3902 (0xF3E)
Идентификатор меню : 92 (0x5C)
Формат : AC-3
Формат/Информация : Audio Coding 3
Коммерческое название : Dolby Digital
Идентификатор кодека : 6
Продолжительность : 49 м. 25 с.
Вид битрейта : Постоянный
Битрейт : 384 Кбит/сек
Каналы : 6 каналов
Channel layout : L R C LFE Ls Rs
Частота : 48,0 КГц
Частота кадров : 31,250 кадров/сек (1536 SPF)
Битовая глубина : 16 бит
Метод сжатия : С потерями
Задержка видео : -120 мс.
Размер потока : 136 Мбайт (3%)
Язык : Russian
ServiceKind/String : Complete Main
Общее
Полное имя : D:\Убойная.сила.Сезон.3.2001.HDTV.1080i-ylnian\08.Роль.второго.плана.HDTV.1080i-ylnian_rus.srt
Размер файла : 65,9 Кбайт
Общее
Идентификатор : 1 (0x1)
Полное имя : D:\Убойная.сила.Сезон.3.2001.HDTV.1080i-ylnian\09.Китайский.квартал.HDTV.1080i-ylnian.ts
Формат : MPEG-TS
Размер файла : 3,43 Гбайт
Продолжительность : 47 м. 6 с.
Режим общего битрейта : Переменный
Общий поток : 10,4 Мбит/сек
Видео
Идентификатор : 1902 (0x76E)
Идентификатор меню : 92 (0x5C)
Формат : AVC
Формат/Информация : Advanced Video Codec
Профиль формата : High@L4
Настройки формата : CABAC / 3 Ref Frames
Параметр CABAC формата : Да
Параметр RefFrames формата : 3 кадра
Идентификатор кодека : 27
Продолжительность : 47 м. 5 с.
Битрейт : 9284 Кбит/сек
Ширина : 1920 пикселей
Высота : 1080 пикселей
Соотношение сторон : 16:9
Частота кадров : 25,000 кадров/сек
Стандарт вещания : Component
Цветовое пространство : YUV
Субдискретизация насыщенности : 4:2:0
Битовая глубина : 8 бит
Тип развёртки : Чересстрочная
Метод сохранения типа развёртки : Раздельные поля
Порядок развёртки : Верхнее поле первое
Бит/(Пиксели*Кадры) : 0.179
Размер потока : 3,05 Гбайт (89%)
Цветовой диапазон : Limited
Основные цвета : BT.709
Характеристики трансфера : BT.709
Коэффициенты матрицы : BT.709
Аудио #1
Идентификатор : 2902 (0xB56)
Идентификатор меню : 92 (0x5C)
Формат : MPEG Audio
Версия формата : Version 1
Профиль формата : Layer 2
Идентификатор кодека : 3
Продолжительность : 47 м. 5 с.
Вид битрейта : Постоянный
Битрейт : 224 Кбит/сек
Каналы : 2 канала
Частота : 48,0 КГц
Частота кадров : 41,667 кадра/сек (1152 SPF)
Метод сжатия : С потерями
Задержка видео : -80 мс.
Размер потока : 75,5 Мбайт (2%)
Язык : Russian
Аудио #2
Идентификатор : 3902 (0xF3E)
Идентификатор меню : 92 (0x5C)
Формат : AC-3
Формат/Информация : Audio Coding 3
Коммерческое название : Dolby Digital
Идентификатор кодека : 6
Продолжительность : 47 м. 5 с.
Вид битрейта : Постоянный
Битрейт : 384 Кбит/сек
Каналы : 6 каналов
Channel layout : L R C LFE Ls Rs
Частота : 48,0 КГц
Частота кадров : 31,250 кадров/сек (1536 SPF)
Битовая глубина : 16 бит
Метод сжатия : С потерями
Задержка видео : -80 мс.
Размер потока : 129 Мбайт (4%)
Язык : Russian
ServiceKind/String : Complete Main
Общее
Полное имя : D:\Убойная.сила.Сезон.3.2001.HDTV.1080i-ylnian\09.Китайский.квартал.HDTV.1080i-ylnian_rus.srt
Размер файла : 45,7 Кбайт
Общее
Идентификатор : 1 (0x1)
Полное имя : D:\Убойная.сила.Сезон.3.2001.HDTV.1080i-ylnian\10.Судный.день.HDTV.1080i-ylnian.ts
Формат : MPEG-TS
Размер файла : 3,95 Гбайт
Продолжительность : 48 м. 28 с.
Режим общего битрейта : Переменный
Общий поток : 11,7 Мбит/сек
Видео
Идентификатор : 1902 (0x76E)
Идентификатор меню : 92 (0x5C)
Формат : AVC
Формат/Информация : Advanced Video Codec
Профиль формата : High@L4
Настройки формата : CABAC / 3 Ref Frames
Параметр CABAC формата : Да
Параметр RefFrames формата : 3 кадра
Идентификатор кодека : 27
Продолжительность : 48 м. 28 с.
Битрейт : 10,5 Мбит/сек
Ширина : 1920 пикселей
Высота : 1080 пикселей
Соотношение сторон : 16:9
Частота кадров : 25,000 кадров/сек
Стандарт вещания : Component
Цветовое пространство : YUV
Субдискретизация насыщенности : 4:2:0
Битовая глубина : 8 бит
Тип развёртки : Чересстрочная
Метод сохранения типа развёртки : Раздельные поля
Порядок развёртки : Верхнее поле первое
Бит/(Пиксели*Кадры) : 0.202
Размер потока : 3,54 Гбайт (90%)
Цветовой диапазон : Limited
Основные цвета : BT.709
Характеристики трансфера : BT.709
Коэффициенты матрицы : BT.709
Аудио #1
Идентификатор : 2902 (0xB56)
Идентификатор меню : 92 (0x5C)
Формат : MPEG Audio
Версия формата : Version 1
Профиль формата : Layer 2
Идентификатор кодека : 3
Продолжительность : 48 м. 28 с.
Вид битрейта : Постоянный
Битрейт : 224 Кбит/сек
Каналы : 2 канала
Частота : 48,0 КГц
Частота кадров : 41,667 кадра/сек (1152 SPF)
Метод сжатия : С потерями
Задержка видео : -120 мс.
Размер потока : 77,7 Мбайт (2%)
Язык : Russian
Аудио #2
Идентификатор : 3902 (0xF3E)
Идентификатор меню : 92 (0x5C)
Формат : AC-3
Формат/Информация : Audio Coding 3
Коммерческое название : Dolby Digital
Идентификатор кодека : 6
Продолжительность : 48 м. 28 с.
Вид битрейта : Постоянный
Битрейт : 384 Кбит/сек
Каналы : 6 каналов
Channel layout : L R C LFE Ls Rs
Частота : 48,0 КГц
Частота кадров : 31,250 кадров/сек (1536 SPF)
Битовая глубина : 16 бит
Метод сжатия : С потерями
Задержка видео : -120 мс.
Размер потока : 133 Мбайт (3%)
Язык : Russian
ServiceKind/String : Complete Main
Общее
Полное имя : D:\Убойная.сила.Сезон.3.2001.HDTV.1080i-ylnian\10.Судный.день.HDTV.1080i-ylnian_rus.srt
Формат : SubRip
Размер файла : 61,3 Кбайт
Текст
Формат : SubRip
Метод сжатия : Без потерь

Список серий

01-04. Предел прочности (50:47 + 47:43 + 48:33 + 48:47)
В убойный отдел из главка приходит разнарядка: три человека в составе оперативной бригады должны отправиться в Чечню сроком на три месяца. Плахов, Рогов и Любимов записываются добровольцами. Снабженные сухими пайками и пистолетами с одним магазином патронов, опера следуют к месту дислокации.
05. Спидвей (48:21)
Совершено ограбление инкассаторской машины: похищена касса с месячной зарплатой всех сотрудников фабрики. Грабителям на гоночных мотоциклах удалось скрыться. Плахов и Рогов приступают к расследованию и выходят на гоночный клуб «Ладога».
06. Закон перспективы (46:29)
Плахов и Рогов знакомятся с миром искусства. Сначала по неизвестным причинам погибает востребованный художник, затем из Русского музея похищают картину Шишкина. Выясняется, что ниточки обоих преступлений ведут в одну мастерскую.
07. Год глухаря (49:29)
В канун Нового года исчезает директор салона красоты для домашних животных. Предполагается, что это похищение. Дело передается в Убойный отдел. При осмотре кабинета устанавливаются следующие факты: у директора была проблема с одним из клиентов, найден чек из ювелирного магазина на крупную сумму, а в столе обнаружена фотография молодой, симпатичной девушки с породистым котом на руках.
08. Роль второго плана (49:25)
Рогова приглашают на съемочную площадку фильма в качестве консультанта. Совершенно неожиданно он заменяет актера второго плана, который не пришел на съемки. А вскоре выясняется, что это не съемочная площадка, а место продуманного преступления.
09. Китайский квартал (47:06)
В Москву на конкурс «Лучший опер России» по решению руководства отправляют Рогова. Но не одного, а с курирующим его Егоровым. Непостижимым образом они оказываются в центре разборок московской и китайской мафий. Тем не менее, путешествие заканчивается благополучно: «лицо» убойного отдела не потеряно, мафия обезврежена. А самое интересное в том, что именно Рогову удается найти те самые алмазы, за которыми гонялись московские сотрудники ФСБ.
10. Судный день (48:28)
В антикварном магазине происходит ограбление. Одному из налетчиков удается скрыться, а второго задерживают сотрудники милиции. Личность парня устанавливают довольно быстро — студент Института физкультуры Минчук. Парень из хорошей семьи, мать — судья. В его квартире производится обыск, в ходе которого находят орудие убийства. Однако, действия оперативников признаются неправомерными. Плахова на полгода отстраняют от занимаемой должности и направляют простым участковым в районное отделение милиции разбирать бытовые преступления. Состоявшийся суд признает Минчука и его приятеля невиновными. Вскоре они совершают новое преступление…

Скриншоты

[url=https://imageban.ru/show/2019/03/19/bff4f08c067b987a879fcc9a97a7ef42/png][img]https://i5.imageban.ru/thumbs/2019.03.19/bff4f0
[cybertorrent.ru].t1215.torrent 
Торрент: Зарегистрирован [ 2019-03-19 18:34 ] · 42FB2E6E6FA7DFDB9EF6A96B411CFE476873CB6B

Скачать .torrent

Скачать

181 KB

Статус: проверено
Скачан: 0 раз
Размер: 35,69 GB
terms.php
Показать сообщения:    

Текущее время: 19-Окт 05:01

Часовой пояс: UTC ± 0



Вы не можете начинать темы
Вы не можете отвечать на сообщения
Вы не можете редактировать свои сообщения
Вы не можете удалять свои сообщения
Вы не можете голосовать в опросах
Вы не можете прикреплять файлы к сообщениям
Вы можете скачивать файлы