Статистика раздачи
Размер:  747 MB   |    Зарегистрирован:  3 месяца 9 дней   |    Скачан:  0 раз

Полного источника не было: Никогда

 
   
 
 

lopster ®

Пол:
Не указан
Стаж:
3 месяца 9 дней
Сообщений:
612

Ясновидящая- Год выпуска: 2009
Жанр: триллер, драма
Продолжительность: 01:38:24-Режиссер: Илья Хотиненко
В ролях: Алла Юганова, Евгений Стычкин, Людмила Артемьева, Александр Голубев, Вячеслав Разбегаев, Владимир Дубовский, Марина Куделинская, Ольга Машная, Алина Ольшанская, Ольга Прохватыло-Описание: Молодая женщина — Ксения Рябинкина, выросшая «девочка-индиго», совершенно неожиданно открывает в себе дар ясновидения. Счастья в этом открытии, увы, мало. Девушка видит будущее и может предсказать судьбу человека, которая под час бывает трагичной. Возможно ли вмешаться в ход событий, зная, что исход неизбежен? И стоит ли попытаться изменить судьбу?-Качество: DVDRip
Формат: AVI
Видео кодек: XviD
Аудио кодек: AC3
Видео: 688x384 (1.79:1), 25 fps, XviD build 47 ~923 kbps avg, 0.14 bit/pixel
Аудио: 48 kHz, MPEG Layer 3, 2 ch, ~128.00 kbps avg
Скачать семпл
Все раздачи фильма: Ясновидящая-

MI

Код:Общее
Полное имя : C:\otkat\Видео\Ясновидящая\Jasnovideshaja.XviD.2009.DVDRip.by.bat.745MB.avi
Формат : AVI
Формат/Информация : Audio Video Interleave
Размер файла : 747 Мбайт
Продолжительность : 1 ч. 38 м.
Общий поток : 1061 Кбит/сек
Программа кодирования : VirtualDubMod 1.5.10.2 (build 2540/release)
Библиотека кодирования : VirtualDubMod build 2540/release
Видео
Идентификатор : 0
Формат : MPEG-4 Visual
Профиль формата : Advanced Simple@L5
Параметр BVOP формата : 1
Параметр QPel формата : Нет
Параметр GMC формата : Без точки перехода
Параметр матрицы формата : Default (H.263)
Идентификатор кодека : XVID
Идентификатор кодека/Подсказка : XviD
Продолжительность : 1 ч. 38 м.
Битрейт : 923 Кбит/сек
Ширина : 688 пикселей
Высота : 384 пикселя
Соотношение сторон : 16:9
Частота кадров : 25,000 кадров/сек
Цветовое пространство : YUV
Субдискретизация насыщенности : 4:2:0
Битовая глубина : 8 бит
Тип развёртки : Прогрессивная
Метод сжатия : С потерями
Бит/(Пиксели*Кадры) : 0.140
Размер потока : 650 Мбайт (87%)
Библиотека кодирования : XviD 1.2.0.dev47 (UTC 2006-11-01)
Аудио
Идентификатор : 1
Формат : MPEG Audio
Версия формата : Version 1
Профиль формата : Layer 3
Идентификатор кодека : 55
Идентификатор кодека/Подсказка : MP3
Продолжительность : 1 ч. 38 м.
Вид битрейта : Постоянный
Битрейт : 128 Кбит/сек
Каналы : 2 канала
Частота : 48,0 КГц
Метод сжатия : С потерями
Размер потока : 90,1 Мбайт (12%)
Выравнивание : Соединение по промежуткам
Продолжительность промежутка : 40 мс. (1,00 видеокадр)
Время предзагрузки промежутка : 504 мс.
Библиотека кодирования : LAME3.97
Настройки программы : -m s -V 4 -q 2 -lowpass 17 -b 128

Скриншоты


[cybertorrent.ru].t122.torrent 
Торрент: Зарегистрирован [ 2018-02-15 13:57 ] · 8CA9DAE9C75271781CCE5C2263042EFDD4EC7090

Скачать .torrent

Скачать

15 KB

Статус: проверено
Скачан: 0 раз
Размер: 747 MB
Профиль [ЛС]
Показать сообщения:    

Текущее время: 25-Май 09:07

Часовой пояс: UTC ± 0



Вы не можете начинать темы
Вы не можете отвечать на сообщения
Вы не можете редактировать свои сообщения
Вы не можете удалять свои сообщения
Вы не можете голосовать в опросах
Вы не можете прикреплять файлы к сообщениям
Вы можете скачивать файлы