Статистика раздачи
Размер:  700 MB   |    Зарегистрирован:  3 месяца 12 дней   |    Скачан:  0 раз
Сидов:  1  [  0 KB/s  ]  
 
   
 
 

lopster ®

Пол:
Не указан
Стаж:
3 месяца 12 дней
Сообщений:
612

Поединок Год выпуска: 2009
Жанр: боевик
Продолжительность: 01:23:55
Режиссер: Дмитрий Лавров
В ролях: Дмитрий Клепацкий, Юлия Гончарова, Олег Шкловский, Евгений Березовский, Юрий Кормушин
Описание: Бизнесмен Артур, в прошлом профессиональный киллер, проводит ночь с любовницей своего босса Светой, женой человека, которого ему приказали убить, а на утро выполняет задание. Через некоторое время Артур понимает, что его подставили: заказчик мертв, а Света бесследно исчезла…
Спасибо собеседнице за предоставленный ДВД!!!
Все раздачи фильма: Поединок
Качество: DVDRip
Формат: AVI
Видео кодек: XviD MPEG-4, 656x352, 1023 kbps avg, 0.18 bit/pixel
Аудио кодек: MPEG Layer 3, 128.00 kbps avg

MI

Код:Общее
Полное имя : C:\otkat\Видео\Поединок\Poedinok.2009.DVDRip.700.avi
Формат : AVI
Формат/Информация : Audio Video Interleave
Размер файла : 700 Мбайт
Продолжительность : 1 ч. 23 м.
Общий поток : 1166 Кбит/сек
Программа кодирования : VirtualDubMod 1.5.10.2 (build 2540/release)
Библиотека кодирования : VirtualDubMod build 2540/release
Видео
Идентификатор : 0
Формат : MPEG-4 Visual
Профиль формата : Advanced Simple@L5
Параметр BVOP формата : 2
Параметр QPel формата : Нет
Параметр GMC формата : Без точки перехода
Параметр матрицы формата : Default (MPEG)
Режим смешивания : Сжатый битовый поток
Идентификатор кодека : XVID
Идентификатор кодека/Подсказка : XviD
Продолжительность : 1 ч. 23 м.
Битрейт : 1028 Кбит/сек
Ширина : 656 пикселей
Высота : 352 пикселя
Соотношение сторон : 1,85:1
Частота кадров : 25,000 кадров/сек
Цветовое пространство : YUV
Субдискретизация насыщенности : 4:2:0
Битовая глубина : 8 бит
Тип развёртки : Прогрессивная
Метод сжатия : С потерями
Бит/(Пиксели*Кадры) : 0.178
Размер потока : 617 Мбайт (88%)
Библиотека кодирования : XviD 1.1.2 (UTC 2006-11-01)
Аудио
Идентификатор : 1
Формат : MPEG Audio
Версия формата : Version 1
Профиль формата : Layer 3
Режим : Joint stereo
Расширение режима : MS Stereo
Идентификатор кодека : 55
Идентификатор кодека/Подсказка : MP3
Продолжительность : 1 ч. 23 м.
Вид битрейта : Постоянный
Битрейт : 128 Кбит/сек
Каналы : 2 канала
Частота : 48,0 КГц
Метод сжатия : С потерями
Размер потока : 76,8 Мбайт (11%)
Выравнивание : Соединение по промежуткам
Продолжительность промежутка : 40 мс. (1,00 видеокадр)
Время предзагрузки промежутка : 504 мс.

Скрин с названием фильма

Скриншоты


[cybertorrent.ru].t123.torrent 
Торрент: Зарегистрирован [ 2018-02-15 13:57 ] · 815D5E33722F125DEA96C4308E4E04945F31CA5F

Скачать .torrent

Скачать

14 KB

Статус: проверено
Скачан: 0 раз
Размер: 700 MB
Профиль [ЛС]
Показать сообщения:    

Текущее время: 28-Май 03:20

Часовой пояс: UTC ± 0



Вы не можете начинать темы
Вы не можете отвечать на сообщения
Вы не можете редактировать свои сообщения
Вы не можете удалять свои сообщения
Вы не можете голосовать в опросах
Вы не можете прикреплять файлы к сообщениям
Вы можете скачивать файлы