Статистика раздачи
Размер:  3,66 GB   |    Зарегистрирован:  5 месяцев 5 дней   |    Скачан:  0 раз

Полного источника не было: Никогда

 
   
 
 

deltacatsplus ®

Пол:
Не указан
Стаж:
5 месяцев 5 дней
Сообщений:
202

Красная шапочка (Семен Горов) [2008 г., Новогодний мюзикл, сказка, DVD-5]Год выпуска: 2008
Страна: Украина
Жанр: Новогодний мюзикл, сказка
Продолжительность: 01:18:41
Язык: Русский
Режиссер: Семен Горов
В ролях: Настя Каменских и Потап, Тимоти, "Алиби", Сергей Галанин, "Ума Турман", Филипп Киркоров, Лайма Вайкуле, София Ротару, Ани Лорак, Юрий Горбунов, Сергей Горов, Виталий Линецкий.
Описание: Такой «Красной шапочки» вы еще не видели! Теперь это не только знаменитая сказка Шарля Перро, но и бесшабашно-веселый современный новогодний мюзикл канала «1+1». Рассказом старой сказки на новый лад занялся мастер новогодних проектов - режиссер Семен Горов, создатель замечательных музыкальных комедий «Безумный день или женитьба Фигаро», «Золушка» и «Сорочинская ярмарка». По его версии, «Красная шапочка» - это история не о том, как волк обманул девочку и съел пирожки, бабушку и саму героиню, а о «большой и чистой любви, которой все возрасты покорны» (конец цитаты). Поэтому сюжетная канва остается той же: мама отправляет дочь с пирожками к бабушке, на лесной тропинке та встречается с волком. Однако обмануть девочку серому разбойнику не удается, потому что Красная Шапочка новой формации – с фигурой и голосом Насти Каменских – ему не по зубам. Роль Волка исполняет, конечно же, Потап, который специально для проекта написал четыре новые песни. Подружками героини Насти Каменских стали девушки из группы «Алиби», а местными лесными хулиганами – банда байкеров во главе с российским рэпером Тимоти. Да, участники сказки ездят на байках, разговаривают исключительно на молодежном сленге, а Волк общается со своим папой-«старым рокером» по электронной почте. Отцом Волка по сюжету стал фронтмен группы «Серьга» Сергей Галанин, а роль мамы героини Рената Литвинова. Сама Красная Шапочка считает себя самой крутой девчонкой в лесу и может обвести вокруг своего пальчика любого волка. А ее бабушку съесть очень сложно - можно запросто подавиться, потому что играть ее будет сам Филипп Киркоров. В новогоднем мюзикле может произойти все, что угодно, поэтому в историю «Красной шапочки» проникли «Бременские музыканты», которыми станет группа «Ума Турман», экзотическая Белоснежка Гайтана и завороженные ею гномы, а также «Синяя Борода» Кузьма. София Ротару превратится в Волшебницу, тогда как Ани Лорак теперь – «Спящая красавица». Даже сами авторы появятся в кадре – Юра Горбунов предстанет в образе Шарля Перро, а компанию в новогоднем баре ему составят братья Гримм – сам режиссер Сергей Горов и актер Виталий Линецкий.
Качество: DVD5
Формат: DVD Video
Видео кодек: MPEG2
Аудио кодек: AC3
Видео: MPEG2 Video 720x576 (4:3) 25.00fps 9800Kbps
Аудио: Dolby AC3 48000Hz 6ch 384Kbps

Скриншоты

Сканы обложки и диска

Отчёт MediaInfo

Общее
Полное имя : G:\Раздачи\Программы, передачи, шоу, спектакли\Красная шапочка Червона Шапочка (2008)\VIDEO_TS\VIDEO_TS.BUP
Формат : DVD Video
Профиль формата : Menu
Размер файла : 8,00 Кбайт
Режим общего битрейта : Переменный
FileExtension_Invalid : ifo
Видео
Идентификатор : 224 (0xE0)
Формат : MPEG Video
Версия формата : Version 1
Вид битрейта : Переменный
Ширина : 720 пикселей
Высота : 480 пикселей
Соотношение сторон : 4:3
Частота кадров : 29,970 (29970/1000) кадров/сек
Стандарт вещания : NTSC
Метод сжатия : С потерями
Общее
Полное имя : G:\Раздачи\Программы, передачи, шоу, спектакли\Красная шапочка Червона Шапочка (2008)\VIDEO_TS\VIDEO_TS.IFO
Формат : DVD Video
Профиль формата : Menu
Размер файла : 8,00 Кбайт
Режим общего битрейта : Переменный
Видео
Идентификатор : 224 (0xE0)
Формат : MPEG Video
Версия формата : Version 1
Вид битрейта : Переменный
Ширина : 720 пикселей
Высота : 480 пикселей
Соотношение сторон : 4:3
Частота кадров : 29,970 (29970/1000) кадров/сек
Стандарт вещания : NTSC
Метод сжатия : С потерями
Общее
Полное имя : G:\Раздачи\Программы, передачи, шоу, спектакли\Красная шапочка Червона Шапочка (2008)\VIDEO_TS\VTS_01_0.BUP
Формат : DVD Video
Профиль формата : Program
Размер файла : 12,0 Кбайт
Продолжительность : 8 с. 0 мс.
Режим общего битрейта : Переменный
Общий поток : 12,3 Кбит/сек
FileExtension_Invalid : ifo
Видео
Идентификатор : 224 (0xE0)
Формат : MPEG Video
Версия формата : Version 2
Продолжительность : 8 с. 0 мс.
Вид битрейта : Переменный
Ширина : 720 пикселей
Высота : 576 пикселей
Соотношение сторон : 4:3
Частота кадров : 25,000 кадров/сек
Стандарт вещания : PAL
Метод сжатия : С потерями
Меню
Продолжительность : 8 с. 0 мс.
00:00:00.000 : Chapter 1
Общее
Полное имя : G:\Раздачи\Программы, передачи, шоу, спектакли\Красная шапочка Червона Шапочка (2008)\VIDEO_TS\VTS_01_0.IFO
Формат : DVD Video
Профиль формата : Program
Размер файла : 12,0 Кбайт
Продолжительность : 8 с. 0 мс.
Режим общего битрейта : Переменный
Общий поток : 12,3 Кбит/сек
Видео
Идентификатор : 224 (0xE0)
Формат : MPEG Video
Версия формата : Version 2
Продолжительность : 8 с. 0 мс.
Вид битрейта : Переменный
Ширина : 720 пикселей
Высота : 576 пикселей
Соотношение сторон : 4:3
Частота кадров : 25,000 кадров/сек
Стандарт вещания : PAL
Метод сжатия : С потерями
Меню
Продолжительность : 8 с. 0 мс.
00:00:00.000 : Chapter 1
Общее
Полное имя : G:\Раздачи\Программы, передачи, шоу, спектакли\Красная шапочка Червона Шапочка (2008)\VIDEO_TS\VTS_01_1.VOB
Формат : MPEG-PS
Размер файла : 178 Кбайт
Продолжительность : 40 мс.
Режим общего битрейта : Постоянный
Общий поток : 36,5 Мбит/сек
Видео
Идентификатор : 224 (0xE0)
Формат : MPEG Video
Версия формата : Version 2
Профиль формата : Main@Main
Параметр BVOP формата : Нет
Параметр матрицы формата : Выборочная
Продолжительность : 40 мс.
Вид битрейта : Постоянный
Максимальный битрейт : 8000 Кбит/сек
Ширина : 720 пикселей
Высота : 576 пикселей
Соотношение сторон : 4:3
Частота кадров : 25,000 кадров/сек
Стандарт вещания : PAL
Цветовое пространство : YUV
Субдискретизация насыщенности : 4:2:0
Битовая глубина : 8 бит
Тип развёртки : Прогрессивная
Порядок развёртки : Верхнее поле первое
Метод сжатия : С потерями
Временной код первого кадра : 00:00:00:00
Оригинал временного кода : Group of pictures header
Меню
Общее
Полное имя : G:\Раздачи\Программы, передачи, шоу, спектакли\Красная шапочка Червона Шапочка (2008)\VIDEO_TS\VTS_02_0.BUP
Формат : DVD Video
Профиль формата : Program
Размер файла : 54,0 Кбайт
Продолжительность : 1 ч. 18 м.
Режим общего битрейта : Переменный
Общий поток : 94 бит/сек
FileExtension_Invalid : ifo
Видео
Идентификатор : 224 (0xE0)
Формат : MPEG Video
Версия формата : Version 2
Продолжительность : 1 ч. 18 м.
Вид битрейта : Переменный
Ширина : 720 пикселей
Высота : 576 пикселей
Соотношение сторон : 4:3
Частота кадров : 25,000 кадров/сек
Стандарт вещания : PAL
Метод сжатия : С потерями
Аудио
Идентификатор : 128 (0x80)
Формат : AC-3
Формат/Информация : Audio Coding 3
Продолжительность : 1 ч. 18 м.
Каналы : 6 каналов
Частота : 48,0 КГц
Метод сжатия : С потерями
Язык : Russian
Меню
Продолжительность : 1 ч. 18 м.
00:00:00.000 : Chapter 1
00:10:00.120 : Chapter 2
00:19:59.880 : Chapter 3
00:30:00.000 : Chapter 4
00:40:00.040 : Chapter 5
00:50:00.280 : Chapter 6
00:59:59.840 : Chapter 7
01:17:20.600 : Chapter 8
01:18:41.760 : Chapter 9
List (Audio) : 0
Общее
Полное имя : G:\Раздачи\Программы, передачи, шоу, спектакли\Красная шапочка Червона Шапочка (2008)\VIDEO_TS\VTS_02_0.IFO
Формат : DVD Video
Профиль формата : Program
Размер файла : 54,0 Кбайт
Продолжительность : 1 ч. 18 м.
Режим общего битрейта : Переменный
Общий поток : 94 бит/сек
Видео
Идентификатор : 224 (0xE0)
Формат : MPEG Video
Версия формата : Version 2
Продолжительность : 1 ч. 18 м.
Вид битрейта : Переменный
Ширина : 720 пикселей
Высота : 576 пикселей
Соотношение сторон : 4:3
Частота кадров : 25,000 кадров/сек
Стандарт вещания : PAL
Метод сжатия : С потерями
Аудио
Идентификатор : 128 (0x80)
Формат : AC-3
Формат/Информация : Audio Coding 3
Продолжительность : 1 ч. 18 м.
Каналы : 6 каналов
Частота : 48,0 КГц
Метод сжатия : С потерями
Язык : Russian
Меню
Продолжительность : 1 ч. 18 м.
00:00:00.000 : Chapter 1
00:10:00.120 : Chapter 2
00:19:59.880 : Chapter 3
00:30:00.000 : Chapter 4
00:40:00.040 : Chapter 5
00:50:00.280 : Chapter 6
00:59:59.840 : Chapter 7
01:17:20.600 : Chapter 8
01:18:41.760 : Chapter 9
List (Audio) : 0
Общее
Полное имя : G:\Раздачи\Программы, передачи, шоу, спектакли\Красная шапочка Червона Шапочка (2008)\VIDEO_TS\VTS_02_0.VOB
Формат : MPEG-PS
Размер файла : 76,9 Мбайт
Продолжительность : 35 с. 280 мс.
Режим общего битрейта : Переменный
Общий поток : 18,3 Мбит/сек
Видео
Идентификатор : 224 (0xE0)
Формат : MPEG Video
Версия формата : Version 2
Профиль формата : Main@Main
Параметр BVOP формата : Да
Параметр матрицы формата : Выборочная
Параметр GOP формата : M=3, N=15
Структура изображения : Frame
Продолжительность : 35 с. 280 мс.
Вид битрейта : Переменный
Битрейт : 17,7 Мбит/сек
Максимальный битрейт : 8000 Кбит/сек
Ширина : 720 пикселей
Высота : 576 пикселей
Соотношение сторон : 4:3
Частота кадров : 25,000 кадров/сек
Стандарт вещания : PAL
Цветовое пространство : YUV
Субдискретизация насыщенности : 4:2:0
Битовая глубина : 8 бит
Тип развёртки : Чересстрочная
Порядок развёртки : Верхнее поле первое
Метод сжатия : С потерями
Бит/(Пиксели*Кадры) : 1.710
Временной код первого кадра : 00:00:00:00
Оригинал временного кода : Group of pictures header
GOP, открыто/закрыто : Открыто
GOP, открыто/закрыто на первом кадре : Закрыто
Размер потока : 74,6 Мбайт (97%)
Аудио
Идентификатор : 189 (0xBD)-128 (0x80)
Формат : AC-3
Формат/Информация : Audio Coding 3
Параметр Endianness формата : Big
Режим смешивания : DVD-Video
Продолжительность : 35 с. 280 мс.
Вид битрейта : Постоянный
Битрейт : 192 Кбит/сек
Каналы : 2 канала
Расположение каналов : Front: L R
Частота : 48,0 КГц
Частота кадров : 31,250 кадров/сек (1536 SPF)
Битовая глубина : 16 бит
Метод сжатия : С потерями
Размер потока : 827 Кбайт (1%)
ServiceKind/String : Complete Main
Текст
Идентификатор : 189 (0xBD)-32 (0x20)
Формат : RLE
Формат/Информация : Run-length encoding
Режим смешивания : DVD-Video
Меню
Общее
Полное имя : G:\Раздачи\Программы, передачи, шоу, спектакли\Красная шапочка Червона Шапочка (2008)\VIDEO_TS\VTS_02_1.VOB
Формат : MPEG-PS
Размер файла : 1024 Мбайт
Продолжительность : 21 м. 47 с.
Режим общего битрейта : Переменный
Общий поток : 6572 Кбит/сек
Видео
Идентификатор : 224 (0xE0)
Формат : MPEG Video
Версия формата : Version 2
Профиль формата : Main@Main
Параметр BVOP формата : Да
Параметр матрицы формата : Выборочная
Параметр GOP формата : Variable
Структура изображения : Frame
Продолжительность : 21 м. 47 с.
Вид битрейта : Переменный
Битрейт : 6057 Кбит/сек
Максимальный битрейт : 9800 Кбит/сек
Ширина : 720 пикселей
Высота : 576 пикселей
Соотношение сторон : 4:3
Частота кадров : 25,000 кадров/сек
Стандарт вещания : PAL
Цветовое пространство : YUV
Субдискретизация насыщенности : 4:2:0
Битовая глубина : 8 бит
Тип развёртки : Чересстрочная
Порядок развёртки : Верхнее поле первое
Метод сжатия : С потерями
Бит/(Пиксели*Кадры) : 0.584
Временной код первого кадра : 00:00:00:00
Оригинал временного кода : Group of pictures header
GOP, открыто/закрыто : Открыто
GOP, открыто/закрыто на первом кадре : Закрыто
Размер потока : 944 Мбайт (92%)
Аудио
Идентификатор : 189 (0xBD)-128 (0x80)
Формат : AC-3
Формат/Информация : Audio Coding 3
Параметр Endianness формата : Big
Режим смешивания : DVD-Video
Продолжительность : 21 м. 46 с.
Вид битрейта : Постоянный
Битрейт : 384 Кбит/сек
Каналы : 6 каналов
Расположение каналов : Front: L C R, Side: L R, LFE
Частота : 48,0 КГц
Частота кадров : 31,250 кадров/сек (1536 SPF)
Битовая глубина : 16 бит
Метод сжатия : С потерями
Размер потока : 59,8 Мбайт (6%)
ServiceKind/String : Complete Main
Меню
Общее
Полное имя : G:\Раздачи\Программы, передачи, шоу, спектакли\Красная шапочка Червона Шапочка (2008)\VIDEO_TS\VTS_02_2.VOB
Формат : MPEG-PS
Размер файла : 1024 Мбайт
Продолжительность : 22 м. 7 с.
Режим общего битрейта : Переменный
Общий поток : 6470 Кбит/сек
Видео
Идентификатор : 224 (0xE0)
Формат : MPEG Video
Версия формата : Version 2
Профиль формата : Main@Main
Параметр BVOP формата : Да
Параметр матрицы формата : Выборочная
Параметр GOP формата : M=3, N=15
Структура изображения : Frame
Продолжительность : 22 м. 7 с.
Вид битрейта : Переменный
Битрейт : 5957 Кбит/сек
Максимальный битрейт : 9800 Кбит/сек
Ширина : 720 пикселей
Высота : 576 пикселей
Соотношение сторон : 4:3
Частота кадров : 25,000 кадров/сек
Стандарт вещания : PAL
Цветовое пространство : YUV
Субдискретизация насыщенности : 4:2:0
Битовая глубина : 8 бит
Тип развёртки : Чересстрочная
Порядок развёртки : Верхнее поле первое
Метод сжатия : С потерями
Бит/(Пиксели*Кадры) : 0.575
Временной код первого кадра : 00:21:47:00
Оригинал временного кода : Group of pictures header
GOP, открыто/закрыто : Открыто
Размер потока : 943 Мбайт (92%)
Аудио
Идентификатор : 189 (0xBD)-128 (0x80)
Формат : AC-3
Формат/Информация : Audio Coding 3
Параметр Endianness формата : Big
Режим смешивания : DVD-Video
Продолжительность : 22 м. 7 с.
Вид битрейта : Постоянный
Битрейт : 384 Кбит/сек
Каналы : 6 каналов
Расположение каналов : Front: L C R, Side: L R, LFE
Частота : 48,0 КГц
Частота кадров : 31,250 кадров/сек (1536 SPF)
Битовая глубина : 16 бит
Метод сжатия : С потерями
Задержка видео : -264 мс.
Размер потока : 60,8 Мбайт (6%)
ServiceKind/String : Complete Main
Меню
Общее
Полное имя : G:\Раздачи\Программы, передачи, шоу, спектакли\Красная шапочка Червона Шапочка (2008)\VIDEO_TS\VTS_02_3.VOB
Формат : MPEG-PS
Размер файла : 1024 Мбайт
Продолжительность : 21 м. 41 с.
Режим общего битрейта : Переменный
Общий поток : 6602 Кбит/сек
Видео
Идентификатор : 224 (0xE0)
Формат : MPEG Video
Версия формата : Version 2
Профиль формата : Main@Main
Параметр BVOP формата : Да
Параметр матрицы формата : Выборочная
Параметр GOP формата : M=3, N=15
Структура изображения : Frame
Продолжительность : 21 м. 41 с.
Вид битрейта : Переменный
Битрейт : 6086 Кбит/сек
Максимальный битрейт : 9800 Кбит/сек
Ширина : 720 пикселей
Высота : 576 пикселей
Соотношение сторон : 4:3
Частота кадров : 25,000 кадров/сек
Стандарт вещания : PAL
Цветовое пространство : YUV
Субдискретизация насыщенности : 4:2:0
Битовая глубина : 8 бит
Тип развёртки : Чересстрочная
Порядок развёртки : Верхнее поле первое
Метод сжатия : С потерями
Бит/(Пиксели*Кадры) : 0.587
Временной код первого кадра : 00:43:54:19
Оригинал временного кода : Group of pictures header
GOP, открыто/закрыто : Открыто
Размер потока : 944 Мбайт (92%)
Аудио
Идентификатор : 189 (0xBD)-128 (0x80)
Формат : AC-3
Формат/Информация : Audio Coding 3
Параметр Endianness формата : Big
Режим смешивания : DVD-Video
Продолжительность : 21 м. 41 с.
Вид битрейта : Постоянный
Битрейт : 384 Кбит/сек
Каналы : 6 каналов
Расположение каналов : Front: L C R, Side: L R, LFE
Частота : 48,0 КГц
Частота кадров : 31,250 кадров/сек (1536 SPF)
Битовая глубина : 16 бит
Метод сжатия : С потерями
Задержка видео : -280 мс.
Размер потока : 59,6 Мбайт (6%)
ServiceKind/String : Complete Main
Меню
Общее
Полное имя : G:\Раздачи\Программы, передачи, шоу, спектакли\Красная шапочка Червона Шапочка (2008)\VIDEO_TS\VTS_02_4.VOB
Формат : MPEG-PS
Размер файла : 600 Мбайт
Продолжительность : 13 м. 6 с.
Режим общего битрейта : Переменный
Общий поток : 6405 Кбит/сек
Видео
Идентификатор : 224 (0xE0)
Формат : MPEG Video
Версия формата : Version 2
Профиль формата : Main@Main
Параметр BVOP формата : Да
Параметр матрицы формата : Выборочная
Параметр GOP формата : M=3, N=15
Структура изображения : Frame
Продолжительность : 13 м. 6 с.
Вид битрейта : Переменный
Битрейт : 5893 Кбит/сек
Максимальный битрейт : 9800 Кбит/сек
Ширина : 720 пикселей
Высота : 576 пикселей
Соотношение сторон : 4:3
Частота кадров : 25,000 кадров/сек
Стандарт вещания : PAL
Цветовое пространство : YUV
Субдискретизация насыщенности : 4:2:0
Битовая глубина : 8 бит
Тип развёртки : Чересстрочная
Порядок развёртки : Верхнее поле первое
Метод сжатия : С потерями
Бит/(Пиксели*Кадры) : 0.568
Временной код первого кадра : 01:05:35:21
Оригинал временного кода : Group of pictures header
GOP, открыто/закрыто : Открыто
Размер потока : 552 Мбайт (92%)
Аудио
Идентификатор : 189 (0xBD)-128 (0x80)
Формат : AC-3
Формат/Информация : Audio Coding 3
Параметр Endianness формата : Big
Режим смешивания : DVD-Video
Продолжительность : 13 м. 6 с.
Вид битрейта : Постоянный
Битрейт : 384 Кбит/сек
Каналы : 6 каналов
Расположение каналов : Front: L C R, Side: L R, LFE
Частота : 48,0 КГц
Частота кадров : 31,250 кадров/сек (1536 SPF)
Битовая глубина : 16 бит
Метод сжатия : С потерями
Задержка видео : -272 мс.
Размер потока : 36,0 Мбайт (6%)
ServiceKind/String : Complete Main
Меню
[cybertorrent.ru].t1234.torrent 
Торрент: Зарегистрирован [ 2018-02-16 03:41 ] · 4918C7629FF7159EFAD73DE8C77FFDCACED95189

Скачать .torrent

Скачать

19 KB

Статус: проверено
Скачан: 0 раз
Размер: 3,66 GB
Профиль [ЛС]
Показать сообщения:    

Текущее время: 21-Июл 04:17

Часовой пояс: UTC ± 0



Вы не можете начинать темы
Вы не можете отвечать на сообщения
Вы не можете редактировать свои сообщения
Вы не можете удалять свои сообщения
Вы не можете голосовать в опросах
Вы не можете прикреплять файлы к сообщениям
Вы можете скачивать файлы