Статистика раздачи
Размер:  700 MB   |    Зарегистрирован:  3 месяца 8 дней   |    Скачан:  0 раз

Полного источника не было: Никогда

 
   
 
 

lopster ®

Пол:
Не указан
Стаж:
3 месяца 8 дней
Сообщений:
612

Отдамся в хорошие руки
Год выпуска: 2009
Жанр: Комедия
Продолжительность: 01:42:23
Режиссер: Наталья Новик
В ролях:
Денис Никифоров, Рената Литвинова, Марат Башаров, Екатерина Кудринская, Виталий Хаев, Алексей Горбунов, Наталья Коляканова, Евгений Коряковский, Александр Лыков, Евгений Сахаров
Описание:
Юная синеглазая красотка Маша живет с двумя братьями в странном доме на берегу Черного моря. Их мать отправилась на поиски лучшей жизни, а семейству Солнцевых приходится выживать самостоятельно. В поисках средств к существованию Маша и ее братья попадают в водоворот разнообразных приключений. В череде событий мелькает богатый француз и погоня за ним с целью замужества, семейка безбашенных соседей во главе с суровым папашей и парочка влюбленных в Машу милиционеров, а также байкеры, вооруженное ограбление, угон машины и незаконное пересечение границы...
Доп. информация:
сценарий Наталия Полякова
продюсер Роман Романцов
оператор Леван Капанадзе
композитор Сергей Чекрыжов

бюджет $3 000 000
сборы в России $342 366
премьера (мир) 20 мая 2008
премьера (РФ) 23 июля 2009, «Seaview company»
релиз на DVD 10 сентября 2009, 13 августа 2009, «CP-DIGITAL»

Выпущено: Россия, Amber Studio
Релиз от: by genadiy
Все раздачи фильма: Отдамся в хорошие руки
Качество видео: DVDRip
Формат видео: AVI
Видео: 640x272 (2.35:1), 25 fps, XviD build 50 ~821 kbps avg, 0.19 bit/pixel
Аудио: 48 kHz, AC3 Dolby Digital, 2/0 (L,R) ch, ~128.00 kbps avg

MI

Код:Общее
Полное имя : C:\otkat\Видео\Отдамся в хорошие руки\Otdamsya.V.Horoshie.Ruki.2009.O.DVDRip.by.Genadiy.avi
Формат : AVI
Формат/Информация : Audio Video Interleave
Размер файла : 700 Мбайт
Продолжительность : 1 ч. 42 м.
Общий поток : 956 Кбит/сек
Программа кодирования : VirtualDubMod 1.5.4.1 (build 2178/release)
Авторское право : DVDRip by GENADIY
Видео
Идентификатор : 0
Формат : MPEG-4 Visual
Профиль формата : Advanced Simple@L5
Параметр BVOP формата : 1
Параметр QPel формата : Нет
Параметр GMC формата : Без точки перехода
Параметр матрицы формата : Выборочная
Идентификатор кодека : XVID
Идентификатор кодека/Подсказка : XviD
Продолжительность : 1 ч. 42 м.
Битрейт : 821 Кбит/сек
Ширина : 640 пикселей
Высота : 272 пикселя
Соотношение сторон : 2,35:1
Частота кадров : 25,000 кадров/сек
Цветовое пространство : YUV
Субдискретизация насыщенности : 4:2:0
Битовая глубина : 8 бит
Тип развёртки : Прогрессивная
Метод сжатия : С потерями
Бит/(Пиксели*Кадры) : 0.189
Размер потока : 602 Мбайт (86%)
Библиотека кодирования : XviD 1.2.1 (UTC 2008-12-04)
Аудио
Идентификатор : 1
Формат : AC-3
Формат/Информация : Audio Coding 3
Расширение режима : CM (complete main)
Параметр Endianness формата : Big
Идентификатор кодека : 2000
Продолжительность : 1 ч. 42 м.
Вид битрейта : Постоянный
Битрейт : 128 Кбит/сек
Каналы : 2 канала
Расположение каналов : Front: L R
Частота : 48,0 КГц
Частота кадров : 31,250 кадров/сек (1536 spf)
Метод сжатия : С потерями
Размер потока : 93,7 Мбайт (13%)
Выравнивание : Разделение по промежуткам
Продолжительность промежутка : 96 мс. (2,40 видеокадра)
Время предзагрузки промежутка : 96 мс.

Скриншоты


[cybertorrent.ru].t124.torrent 
Торрент: Зарегистрирован [ 2018-02-15 13:57 ] · AED303506FE5807045F51D60840C249222036B61

Скачать .torrent

Скачать

14 KB

Статус: проверено
Скачан: 0 раз
Размер: 700 MB
Профиль [ЛС]
Показать сообщения:    

Текущее время: 23-Май 16:50

Часовой пояс: UTC ± 0



Вы не можете начинать темы
Вы не можете отвечать на сообщения
Вы не можете редактировать свои сообщения
Вы не можете удалять свои сообщения
Вы не можете голосовать в опросах
Вы не можете прикреплять файлы к сообщениям
Вы можете скачивать файлы