Статистика раздачи
Размер:  1,43 GB   |    Зарегистрирован:  7 месяцев 1 день   |    Скачан:  0 раз

Полного источника не было: Никогда

   
 

karlll ®

Пол:
Не указан
Стаж:
7 месяцев 9 дней
Сообщений:
171

Астерикс в Британии / Astérix chez les Bretons / Asterix in Britain
Страна: Франция
Жанр: мультфильм, фэнтези, комедия, приключения, семейный
Продолжительность: 01:18:39
Год выпуска: 1986
Перевод: Профессиональный (многоголосый закадровый) Новый Канал
Русские субтитры: нет
Режиссёр: Пино Ван Ламсвеерде / Pino Van Lamsweerde
Роли озвучивали: Роже Карель, Пьер Торнад, Грэхэм Бушнелл, Пьер Монди, Морис Риш, Roger Lumont, Николя Сильберг, Альбер Ожье, Пол Бисцилиа
Описание: Юлий Цезарь не на шутку разозлился на британцев, которые не только не сдавались римским войскам, но и неоднократно помогали в битвах свободолюбивым галлам. Выход один — война. Тем более что британцы воюют лишь пять дней в неделю, да и то с перерывом для чаепития. Хитрый Цезарь вновь забыл, что где-то поблизости, — всего лишь через пролив, — проживает доблестный Астерикс с друзьями. Только им известен секрет таинственного зелья.…А то, что подходит для галлов, подойдет и для британцев!
Доп. информация: Старая многоголосая озвучка с украинского ТВ. Транслировалась по нескольким телеканалам, таким как Новый Канал, ТРК Украина и ICTV в период с 2001 по 2006 год.
Синхронизация и релиз: nLboOm
К сожалению, телевизионщики как-то умудрились накосячить во время озвучивания, в результате чего оригинальная дорожка переодически начинает двоиться, это хорошо заметно в семпле, когда футболисты по мячу бьют. При этом, голоса русскоязычного закадра звучат нормально. Не могу сказать, был ли на ТВ когда-то показан исправленный вариант.
Семпл: https://cloud.mail.ru/public/Fzzx/aGGbNH2zP
Качество: BDRip. Видео взял отсюда
Формат: AVI
Видео: 720x432 (1.67:1), 23.976 fps, XviD build 65 ~2399 kbps avg, 0.32 bit/pixel
Аудио: AC3 Dolby Digital, 48 kHz, 2 ch,192 kbps avg RUS
Субтитры: отсутствуют

Подробные технические данные

General
Format : AVI
Format/Info : Audio Video Interleave
File size : 1.43 GiB
Duration : 1 h 18 min
Overall bit rate : 2 601 kb/s
Writing application : VirtualDubMod 1.5.10.2 (build 2542/release)
Writing library : VirtualDubMod build 2542/release
Video
ID : 0
Format : MPEG-4 Visual
Format profile : Advanced Simple@L5
Format settings, BVOP : 1
Format settings, QPel : No
Format settings, GMC : No warppoints
Format settings, Matrix : Default (H.263)
Codec ID : XVID
Codec ID/Hint : XviD
Duration : 1 h 18 min
Bit rate : 2 399 kb/s
Width : 720 pixels
Height : 432 pixels
Display aspect ratio : 5:3
Frame rate : 23.976 (24000/1001) FPS
Color space : YUV
Chroma subsampling : 4:2:0
Bit depth : 8 bits
Scan type : Progressive
Compression mode : Lossy
Bits/(Pixel*Frame) : 0.322
Stream size : 1.32 GiB (92%)
Writing library : XviD 65
Audio
ID : 1
Format : AC-3
Format/Info : Audio Coding 3
Format settings, Endianness : Big
Codec ID : 2000
Duration : 1 h 18 min
Bit rate mode : Constant
Bit rate : 192 kb/s
Channel(s) : 2 channels
Channel positions : Front: L R
Sampling rate : 48.0 kHz
Frame rate : 31.250 FPS (1536 SPF)
Bit depth : 16 bits
Compression mode : Lossy
Stream size : 108 MiB (7%)
Alignment : Split accross interleaves
Interleave, duration : 42 ms (1.00 video frame)
Interleave, preload duratio : 500 ms
Service kind : Complete Main

Скриншоты


[cybertorrent.ru].t1243.torrent 
Торрент: Зарегистрирован [ 2019-03-20 17:24 ] · 8BAEC21B551D991ADF51ECE6D7CC4934EEEE40DF

Скачать .torrent

Скачать

15 KB

Статус: проверено
Скачан: 0 раз
Размер: 1,43 GB
terms.php
Профиль ЛС
Показать сообщения:    

Текущее время: 22-Окт 09:46

Часовой пояс: UTC ± 0



Вы не можете начинать темы
Вы не можете отвечать на сообщения
Вы не можете редактировать свои сообщения
Вы не можете удалять свои сообщения
Вы не можете голосовать в опросах
Вы не можете прикреплять файлы к сообщениям
Вы можете скачивать файлы