Статистика раздачи
Размер:  1,37 GB   |    Зарегистрирован:  2 месяца 30 дней   |    Скачан:  0 раз
DL-List: Нет

Полного источника не было: Никогда

 
     
 
 

MAGNAT ®

Пол:
Мужской
Стаж:
1 год 2 месяца
Сообщений:
7949

Али Баба и 40 разбойников / Ali Baba and the Forty Thieves
«BOOTY... prize of a king... slave of a rogue!»
Страна: США
Жанр: Фэнтези
Год выпуска: 1944
Продолжительность: 01:27:28
Перевод: Авторский (одноголосый закадровый) Алексей Михалев
Субтитры: нет
Режиссер: Артур Любин / Arthur Lubin
В ролях: Мария Монтес, Джон Холл, Турхан Бей, Энди Дивайн, Курт Кэтч, Фрэнк Пулья, Фортунио
Бонанова, Морони Олсен, Рамсей Амес, Крис-Пин Мартин
Описание: Роскошная фантазия из "1001 ночи" рассказывает о приключениях сына калифа Багдада, сбежавшего в пустыню после того, как его отца убили во время нашествия монголов. Там он встречается с легендарными 40 разбойниками, узнает смысл слов "Сезам, откройся" и находит несметные сокровища. Разбойники как бы усыновляют его, он взрослеет и становится их вожаком под именем Али-Бабы. Став уже совсем большим, Али-Баба отправляется мстить за смерть отца и освобождать Родину. Много поединков, батальных сцен и приключений в духе Робин Гуда. Гибкая красота Марии Монтес, королевы компании "Юниверсал" тех лет. Снят фильм в цвете и понравится и большим, и маленьким. (Иванов М.)
Качество видео: HDRip
Формат видео: AVI
Видео: XviD build 73, 704x528 (1.33:1), 23.976 fps, 2033 kbps avg, 0.23 bit/pixel
Аудио: AC3 Dolby Digital, 48000Hz, 2/0 (L,R) ch (mono), 192 kbps avg

MediaInfo

Али Баба и 40 разбойников (Ali Baba and the Forty Thieves) [by ale_x2008].avi
Format : AVI
Format/Info : Audio Video Interleave
File size : 1.37 GiB
Duration : 1 h 27 min
Overall bit rate : 2 235 kb/s
Movie name : Али Баба и 40 разбойников (Ali Baba and the Forty Thieves) [by ale_x2008]
Director : by ale_x2008
Writing application : VirtualDubMod 1.5.10.2 (build 2540/release)
Copyright : Edich2
Comment : RuTracker.org
Video
ID : 0
Format : MPEG-4 Visual
Format profile : Advanced Simple@L5
Format settings : BVOP1 / Custom Matrix
Format settings, BVOP : 1
Format settings, QPel : No
Format settings, GMC : No warppoints
Format settings, Matrix : Custom
Codec ID : XVID
Codec ID/Hint : XviD
Duration : 1 h 27 min
Bit rate : 2 033 kb/s
Width : 704 pixels
Height : 528 pixels
Display aspect ratio : 4:3
Frame rate : 23.976 (24000/1001) FPS
Color space : YUV
Chroma subsampling : 4:2:0
Bit depth : 8 bits
Scan type : Progressive
Compression mode : Lossy
Bits/(Pixel*Frame) : 0.228
Stream size : 1.24 GiB (91%)
Writing library : XviD 73
Audio
ID : 1
Format : AC-3
Format/Info : Audio Coding 3
Codec ID : 2000
Duration : 1 h 27 min
Bit rate mode : Constant
Bit rate : 192 kb/s
Channel(s) : 2 channels
Channel positions : Front: L R
Sampling rate : 48.0 kHz
Frame rate : 31.250 FPS (1536 SPF)
Bit depth : 16 bits
Compression mode : Lossy
Stream size : 120 MiB (9%)
Alignment : Split accross interleaves
Interleave, duration : 42 ms (1.00 video frame)
Interleave, preload duratio : 500 ms
Service kind : Complete Main

Скриншоты


[cybertorrent.ru].t12446.torrent 
Торрент: Зарегистрирован [ 2020-03-05 20:00 ] · 74C138013812FD43AA19690EBDCDB72DAA141638

Скачать .torrent

Скачать

14 KB

Статус: проверено
Скачан: 0 раз
Размер: 1,37 GB  ·  Тип торрента
terms.php
Профиль [ЛС]
Показать сообщения:    

Текущее время: 05-Июн 13:19

Часовой пояс: UTC ± 0



Вы не можете начинать темы
Вы не можете отвечать на сообщения
Вы не можете редактировать свои сообщения
Вы не можете удалять свои сообщения
Вы не можете голосовать в опросах
Вы не можете прикреплять файлы к сообщениям
Вы можете скачивать файлы