Статистика раздачи
Размер:  3,76 GB   |    Зарегистрирован:  6 месяцев 30 дней   |    Скачан:  0 раз

Полного источника не было: Никогда

   
 

Гость ®

Пол:
Не указан

90-е. Весело и громко
Год выпуска: 2018
Производство: «Арт Пикчерс Вижн» при участии «БЛЭК БОКС ПРОДАКШН»
Жанр: комедия
Продолжительность: ~00:25:00 серия
Субтитры: нет
Режиссёр: Егор Карма
В ролях: Стася Милославская, Егор Трухин, Константин Фисенко, Юлия Егерева, Филипп Ершов, Роман Курцын, Дмитрий Никулин, Ян Цапник, Нодар Джанелидзе, Софья Евстигнеева, Эдгар Гизатуллин, Алексей Овсянников
Описание: История рассказывает о двух гитаристах Васе и Паше, студентке хорового училища Жене, десантнике Бобе и преподавателе классического вокала Птицыне, которые волей случая объединяются, чтобы создать рок-группу. На пути к славе будущих звёзд ждут криминальные авторитеты, малиновые пиджаки, «новейшие» гаджеты в виде пейджеров и тетрисов и, конечно, всемирно известные кумиры, в числе которых Фредди Меркьюри и Курт Кобейн.

Реклама: Нет.
Кинопоиск
Все раздачи сериала
Sample
Качество: WEBRip 720p - Getty
Формат: MKV
Видео кодек: H.264
Аудио кодек: AC3
Видео: MPEG4 AVC Video, H264, 16:9, 1280x720, 25 fps, ~3500 kbps, 0.151 bit/pixel
Аудио: AC3, 48.0 kHz, 2/0 (L,R) ch, 192 kbps

Внимание! Раздача ведётся путём добавления новых серий

Раздача ведётся путём добавления новых серий, при каждом добавлении создаётся новый торрент. Чтобы начать докачку новой серии, пользователям необходимо сделать следующее:
- Остановить скачивание.
- Удалить старый торрент у себя из клиента (старые серии удалять не надо).
- Скачать новый торрент и запустить его у себя в клиенте вместо старого, при этом указать клиенту путь в старую папку куда и должно происходить скачивание новых серий.
Ваш клиент при этом должен произвести хеширование (проверку) старой папки (если не производит сам - помогите ему сделать это), и будет докачивать только те серии которых у вас ещё нет. Старые серии при этом не удаляются, а продолжают раздаваться!
Если вы уже удалили старые серии, то предотвратить повторную закачку старых серий можно, отжав галочку в соответствующих местах при запуске нового торрента. По возможности, желательно не удалять старые серии как можно дольше, чтобы релизер не столько продолжал раздавать старые серии, а смог сконцентрироваться на новых.

MI

General
Unique ID : 229428859563078281864748838882524034735 (0xAC9A641D6B89A7908BFD0AEB57F876AF)
Complete name : D:\90-e.Veselo.i.gromko.2018.WEB-DL.(720p).Getty\90-e.Veselo.i.gromko.e01.2018.WEB-DL.(720p).Getty.mkv
Format : Matroska
Format version : Version 2
File size : 687 MiB
Duration : 25 min 39 s
Overall bit rate mode : Variable
Overall bit rate : 3 743 kb/s
Encoded date : UTC 2019-03-18 09:14:14
Writing application : mkvmerge v4.0.0 ('The Stars were mine') сборка от Jun 6 2010 16:18:42
Writing library : libebml v1.0.0 + libmatroska v1.0.0
Video
ID : 1
Format : AVC
Format/Info : Advanced Video Codec
Format profile : High@L4.1
Format settings : CABAC / 5 Ref Frames
Format settings, CABAC : Yes
Format settings, ReFrames : 5 frames
Codec ID : V_MPEG4/ISO/AVC
Duration : 25 min 39 s
Bit rate mode : Variable
Bit rate : 3 477 kb/s
Maximum bit rate : 40.0 Mb/s
Width : 1 280 pixels
Height : 720 pixels
Display aspect ratio : 16:9
Frame rate mode : Constant
Frame rate : 25.000 FPS
Color space : YUV
Chroma subsampling : 4:2:0
Bit depth : 8 bits
Scan type : Progressive
Bits/(Pixel*Frame) : 0.151
Stream size : 638 MiB (93%)
Language : Russian
Default : Yes
Forced : No
Audio
ID : 2
Format : AC-3
Format/Info : Audio Coding 3
Codec ID : A_AC3
Duration : 25 min 39 s
Bit rate mode : Constant
Bit rate : 192 kb/s
Channel(s) : 2 channels
Channel positions : Front: L R
Sampling rate : 48.0 kHz
Frame rate : 31.250 FPS (1536 SPF)
Bit depth : 16 bits
Compression mode : Lossy
Stream size : 35.2 MiB (5%)
Language : Russian
Service kind : Complete Main
Default : Yes
Forced : No

Скриншоты


[cybertorrent.ru].t1246.torrent 
Торрент: Зарегистрирован [ 2019-03-20 17:24 ] · 763A423C1873634A0E6B12CFC1D27BA6066D3908

Скачать .torrent

Скачать

20 KB

Статус: проверено
Скачан: 0 раз
Размер: 3,76 GB
terms.php
Показать сообщения:    

Текущее время: 20-Окт 11:50

Часовой пояс: UTC ± 0



Вы не можете начинать темы
Вы не можете отвечать на сообщения
Вы не можете редактировать свои сообщения
Вы не можете удалять свои сообщения
Вы не можете голосовать в опросах
Вы не можете прикреплять файлы к сообщениям
Вы можете скачивать файлы