Статистика раздачи
Размер:  819 MB   |    Зарегистрирован:  8 месяцев 26 дней   |    Скачан:  0 раз

Полного источника не было: Никогда

Личеров:  2  [  0 KB/s  ]  
 
   
 
 

NINJA ®

Пол:
Не указан
Стаж:
8 месяцев 27 дней
Сообщений:
84

Fantasy Bellydance Performances
Год выпуска: 2009
Страна: USA
Жанр: Performance, Bellydance
Продолжительность: 01:32:34
Сэмпл: https://yadi.sk/d/NxegLJtj3JybiT

Описание на английском

Welcome to Fantasy Bellydance. In this DVD: Atlantis flourishes and perishes; Firebird lights the forest with its brilliant feathers; Prince Charming loses his battle with the dragon; pirate wenches clash in a fierce duel; an invocation to the Moon goddess is recited in a jewel of a dance; a Mermaid finds and loses love; Salomé asks for the head of the holy man; the Swan Maiden swirls in a magical rite; Eleutheria, Ruler of the deep seas unfolds her tentacles; Android emerges from a Sci-Fi future to save the world with robotic grace; an Amazon warrior is called to the battle; Persephone falls from innocence into dark passion; a fantasy geisha glides mysteriously amid the waves of her silk fans, Aphrodite is born of the sea; a slinky cabaret seductress dances in an old-world port at the crossroads of the planet...
This Fantasy Bellydance program features performances by New York City dancers Anasma, Autumn Ward, Ayshe, Blanca, Fayzah, Irina, Neon, Rayhana, Sarah Skinner, Sira, Tanna Valentine, and Uyum Dans (Elisheva and Kittarina), and brings you rich exotic world music by composers from the US, Europe, and Latin America.
Fantasy Bellydance with its dreamy, exotic, highly artistic non-traditional dance, has evolved through explorations of many 20th century and post-millennial artists in the West, finding its distinct genre definition and a powerful impetus through lavish and whimsical Fantasy Bellydance concerts hosted in New York City by the Venus Uprising creative salon.
This compilation of Fantasy Bellydance performances is based on creations seen at the Cult of Myth show held by Venus Uprising within its Fantasy series. Many artists performing Fantasy Bellydance stay within the vocabulary and technique of traditional bellydance, while others blend it more liberally with modern dance, jazz, and world fusion. Other dancers draw on Tribal technique, aesthetics, and concepts using these to create fantasy themes and images.
Fantasy Bellydance is not a technique or style fusion: It is an image fusion, a unity of themes and image aesthetics combined with a diversity of techniques. Fantasy Bellydance reaches for images and themes related neither to the ethnic origins of bellydance nor to the image of a bellydancer as an entertainer. Rather, it embraces dance as theater and plays with spiritual, esoteric, medieval, Gothic, goddess, astrology, mythology, nature, magic, and other themes. Fantasy Bellydance performances echo the plots of fantasy fiction, and borrow from the fantasy aesthetics developed by a number of subcultures - Rock, Gothic, Comic-book, Pagan, Renaissance/Medieval, and more.
Качество: DVDRip
Формат: AVI
Видео кодек: XviD
Аудио кодек: MP3
Видео: XVID 640 x 468 29.970FPS 1207kbs
Аудио: MPEG-1 Layer 3 48000Hz 128 kb/s tot , Joint Stereo

Mediainfo

Формат/Информация : Audio Video Interleave
Размер файла : 819 Мбайт
Продолжительность : 1 ч. 32 м.
Общий поток : 1237 Кбит/сек
Библиотека кодирования : Boilsoft Joiner build 2411/release
Видео
Идентификатор : 0
Формат : MPEG-4 Visual
Профиль формата : Advanced Simple@L5
Параметр BVOP формата : 2
Параметр QPel формата : Нет
Параметр GMC формата : Без точки перехода
Параметр матрицы формата : Default (H.263)
Режим смешивания : Сжатый битовый поток
Идентификатор кодека : XVID
Идентификатор кодека/Подсказка : XviD
Продолжительность : 1 ч. 32 м.
Битрейт : 1097 Кбит/сек
Ширина : 640 пикселей
Высота : 468 пикселей
Соотношение сторон : 4:3
Частота кадров : 29,970 (30000/1001) кадров/сек
Цветовое пространство : YUV
Субдискретизация насыщенности : 4:2:0
Битовая глубина : 8 бит
Тип развёртки : Прогрессивная
Метод сжатия : С потерями
Бит/(Пиксели*Кадры) : 0.122
Размер потока : 727 Мбайт (89%)
Библиотека кодирования : XviD 1.0.3 (UTC 2004-12-20)
Аудио
Идентификатор : 1
Формат : MPEG Audio
Версия формата : Version 1
Профиль формата : Layer 3
Режим : Joint stereo
Расширение режима : MS Stereo
Идентификатор кодека : 55
Идентификатор кодека/Подсказка : MP3
Продолжительность : 1 ч. 32 м.
Вид битрейта : Постоянный
Битрейт : 128 Кбит/сек
Каналы : 2 канала
Частота : 48,0 КГц
Метод сжатия : С потерями
Размер потока : 84,7 Мбайт (10%)
Выравнивание : Соединение по промежуткам
Продолжительность промежутка : 33 мс. (1,00 видеокадр)
Время предзагрузки промежутка : 480 мс.

Скриншоты


[cybertorrent.ru].t1254.torrent 
Торрент: Зарегистрирован [ 2018-02-16 03:41 ] · 63D44B2553A9EA3D71DE9940726466F580F23478

Скачать .torrent

Скачать

16 KB

Статус: проверено
Скачан: 0 раз
Размер: 819 MB
Профиль [ЛС]
Показать сообщения:    

Текущее время: 14-Ноя 20:24

Часовой пояс: UTC ± 0



Вы не можете начинать темы
Вы не можете отвечать на сообщения
Вы не можете редактировать свои сообщения
Вы не можете удалять свои сообщения
Вы не можете голосовать в опросах
Вы не можете прикреплять файлы к сообщениям
Вы можете скачивать файлы
Torrents24.ru открытый BitTorrent Torrents24.pl открытый BitTorrent CyberTorrent.ru открытый BitTorrent BtList.ru рейтинг BitTorrent трекеров Яндекс.Метрика