Статистика раздачи
Размер:  743 MB   |    Зарегистрирован:  3 месяца 26 дней   |    Скачан:  0 раз
DL-List: Нет

Полного источника не было: Никогда

 
     
 
 

MAGNAT ®

Пол:
Мужской
Стаж:
1 год 3 месяца
Сообщений:
8775

Наш мистер Солнце / Our Mr. Sun
Страна: США
Жанр: документальный, анимация
Год выпуска: 1956
Продолжительность: 0:53:49
Перевод: Одноголосый закадровый - minyaev
Субтитры: нет
Оригинальная аудиодорожка: английский
Режиссер: Фрэнк Капра / Frank Capra
В ролях: Эдди Альберт, Фрэнк Бакстер, Марвин Миллер, Лайонел Бэрримор (голос), Стерлинг Холлоуэй (голос)
Описание: В фильме рассказывается о том, как работает Солнце. Ученый и Писатель спрашивают у Папаши Времени, что было у начала времен и что есть Солнце. Папаша Время и мистер Солнце недоумевают – ведь ежу понятно, что Солнце восходит на востоке и все цивилизации во все времена считали его главным Богом. И вообще тут нечего объяснять. Но Ученый и Писатель с этим не согласны и поясняют своим друзьям, что Солнце - это очень сложная штука, состоящая из газа, удерживаемого силой гравитации. Что это гигантский космический объект, оказывающий на Землю очень сильное влияние. Что ученые во все времена изучали Солнце и учились пользоваться его энергией. Ошарашенный мистер Солнце в итоге признает, что он заблуждался насчет себя и что он величественнее, чем он даже думал.
Качество видео: DVDRip
Формат видео: AVI
Видео: 640x464 (1.38:1), 23.976 fps, XviD build 50 ~1658 kbps avg, 0.23 bit/pixel
Аудио 1: 48 kHz, MPEG Layer 3, 2 ch, ~128.00 kbps avg [RUS]
Аудио 2: 48 kHz, MPEG Layer 3, 2 ch, ~128.00 kbps avg [ENG]

MediaInfo

Общее
Полное имя : ...\Our Mr. Sun.avi
Формат : AVI
Формат/Информация : Audio Video Interleave
Размер файла : 743 Мбайт
Продолжительность : 53 м. 49 с.
Общий поток : 1929 Кбит/сек
Программа кодирования : VirtualDubMod 1.5.10.2 (build 2540/release)
Библиотека кодирования : VirtualDubMod build 2540/release
Видео
Идентификатор : 0
Формат : MPEG-4 Visual
Профиль формата : Advanced Simple@L5
Параметр BVOP формата : 2
Параметр QPel формата : Нет
Параметр GMC формата : Без точки перехода
Параметр матрицы формата : Default (H.263)
Идентификатор кодека : XVID
Идентификатор кодека/Подсказка : XviD
Продолжительность : 53 м. 49 с.
Битрейт : 1660 Кбит/сек
Ширина : 640 пикселей
Высота : 464 пикселя
Соотношение сторон : 1,379
Частота кадров : 23,976 (24000/1001) кадра/сек
Цветовое пространство : YUV
Субдискретизация насыщенности : 4:2:0
Битовая глубина : 8 бит
Тип развёртки : Прогрессивная
Метод сжатия : С потерями
Бит/(Пиксели*Кадры) : 0.233
Размер потока : 639 Мбайт (86%)
Библиотека кодирования : XviD 1.2.1 (UTC 2008-12-04)
Аудио #1
Идентификатор : 1
Формат : MPEG Audio
Версия формата : Version 1
Профиль формата : Layer 3
Режим : Joint stereo
Расширение режима : MS Stereo
Идентификатор кодека : 55
Идентификатор кодека/Подсказка : MP3
Продолжительность : 53 м. 49 с.
Вид битрейта : Постоянный
Битрейт : 128 Кбит/сек
Каналы : 2 канала
Частота : 48,0 КГц
Метод сжатия : С потерями
Размер потока : 49,3 Мбайт (7%)
Выравнивание : Соединение по промежуткам
Продолжительность промежутка : 42 мс. (1,00 видеокадр)
Время предзагрузки промежутка : 504 мс.
Аудио #2
Идентификатор : 2
Формат : MPEG Audio
Версия формата : Version 1
Профиль формата : Layer 3
Режим : Joint stereo
Расширение режима : MS Stereo
Идентификатор кодека : 55
Идентификатор кодека/Подсказка : MP3
Продолжительность : 53 м. 49 с.
Вид битрейта : Постоянный
Битрейт : 128 Кбит/сек
Каналы : 2 канала
Частота : 48,0 КГц
Метод сжатия : С потерями
Размер потока : 49,3 Мбайт (7%)
Выравнивание : Соединение по промежуткам
Продолжительность промежутка : 42 мс. (1,00 видеокадр)
Время предзагрузки промежутка : 504 мс.
Библиотека кодирования : LAME3.97
Настройки программы : -m j -V 4 -q 2 -lowpass 17 -b 128

Скриншоты

[cybertorrent.ru].t12543.torrent 
Торрент: Зарегистрирован [ 2020-03-07 16:41 ] · B6D0DEDC8F4F0423A3206765E5D9D07D2EA7AB69

Скачать .torrent

Скачать

15 KB

Статус: проверено
Скачан: 0 раз
Размер: 743 MB  ·  Тип торрента
terms.php
Профиль [ЛС]
Показать сообщения:    

Текущее время: 03-Июл 15:46

Часовой пояс: UTC ± 0



Вы не можете начинать темы
Вы не можете отвечать на сообщения
Вы не можете редактировать свои сообщения
Вы не можете удалять свои сообщения
Вы не можете голосовать в опросах
Вы не можете прикреплять файлы к сообщениям
Вы можете скачивать файлы