Статистика раздачи
Размер:  352 MB   |    Зарегистрирован:  5 месяцев 2 дня   |    Скачан:  0 раз

Полного источника не было: Никогда

Личеров:  1  [  0 KB/s  ]  
 
   
 
 

safari ®

Пол:
Мужской
Стаж:
5 месяцев 6 дней
Сообщений:
98

Echoes Of Nature – Wilderness River
Жанр: Звуки природы / Environmental, Relaxation
Год издания: 1993
Label: LaserLight
Номер по каталогу: 12 254
Аудиокодек: FLAC
Тип рипа: tracks+.cue
Битрейт аудио: lossless
Продолжительность: 60:12
Сканов нет
Треклист:
01. Big River (14:14)
02. Streamside Songbirds (24:23)
03. Small Rapid (5:40)
04. Crickets & Water (15:55)
 

Лог создания рипа

X Lossless Decoder version 20121013 (142.0)
XLD extraction logfile from 2012-10-18 20:53:17 +0200
[nature sounds] / Echoes of Nature: Wilderness River
Used drive : OPTIARC DVD RW AD-5680H (revision 3AHB)
Ripper mode : XLD Secure Ripper
Disable audio cache : OK for the drive with a cache less than 1375KiB
Make use of C2 pointers : NO
Read offset correction : 48
Max retry count : 20
Gap status : Analyzed, Appended
TOC of the extracted CD
Track | Start | Length | Start sector | End sector
---------------------------------------------------------
1 | 00:00:00 | 14:14:35 | 0 | 64084
2 | 14:14:35 | 24:22:68 | 64085 | 173802
3 | 38:37:28 | 05:39:50 | 173803 | 199277
4 | 44:17:03 | 15:54:62 | 199278 | 270889
AccurateRip Summary (DiscID: 000acdd8-002abdf6-3a0e1b04)
Track 01 : OK (v1, confidence 6/6)
Track 02 : OK (v1, confidence 6/6)
Track 03 : OK (v1, confidence 6/6)
Track 04 : OK (v1, confidence 5/5)
->All tracks accurately ripped.
All Tracks
Album gain : 8.92 dB
Peak : 0.466156
Statistics
Read error : 0
Jitter error (maybe fixed) : 0
Retry sector count : 0
Damaged sector count : 0
Track 01
Filename : /Users/Bob/Music/[nature sounds] - Echoes of Natureпјљ Wilderness River (1993) - [FLAC]/01 Big River.flac
/Users/Bob/Music/[nature sounds] - Echoes of Natureпјљ Wilderness River (1993) - [V0]/01 Big River.mp3
/Users/Bob/Music/[nature sounds] - Echoes of Natureпјљ Wilderness River (1993) - [320]/01 Big River.mp3
/Users/Bob/Music/[nature sounds] - Echoes of Natureпјљ Wilderness River (1993) - [V2]/01 Big River.mp3
Pre-gap length : 00:02:00
Track gain : 13.74 dB
Peak : 0.466156
CRC32 hash (test run) : EA636D5C
CRC32 hash : EA636D5C
CRC32 hash (skip zero) : 1F2452A3
AccurateRip v1 signature : 169A9A37
AccurateRip v2 signature : 1ADC1080
->Accurately ripped (v1, confidence 6/6)
Statistics
Read error : 0
Jitter error (maybe fixed) : 0
Retry sector count : 0
Damaged sector count : 0
Track 02
Filename : /Users/Bob/Music/[nature sounds] - Echoes of Natureпјљ Wilderness River (1993) - [FLAC]/02 Streamside Songbirds.flac
/Users/Bob/Music/[nature sounds] - Echoes of Natureпјљ Wilderness River (1993) - [V0]/02 Streamside Songbirds.mp3
/Users/Bob/Music/[nature sounds] - Echoes of Natureпјљ Wilderness River (1993) - [320]/02 Streamside Songbirds.mp3
/Users/Bob/Music/[nature sounds] - Echoes of Natureпјљ Wilderness River (1993) - [V2]/02 Streamside Songbirds.mp3
Track gain : 11.57 dB
Peak : 0.379364
CRC32 hash (test run) : C351F5D6
CRC32 hash : C351F5D6
CRC32 hash (skip zero) : 932D7022
AccurateRip v1 signature : 53DB6FAC
AccurateRip v2 signature : EC3EE30F
->Accurately ripped (v1, confidence 6/6)
Statistics
Read error : 0
Jitter error (maybe fixed) : 0
Retry sector count : 0
Damaged sector count : 0
Track 03
Filename : /Users/Bob/Music/[nature sounds] - Echoes of Natureпјљ Wilderness River (1993) - [FLAC]/03 Small Rapid.flac
/Users/Bob/Music/[nature sounds] - Echoes of Natureпјљ Wilderness River (1993) - [V0]/03 Small Rapid.mp3
/Users/Bob/Music/[nature sounds] - Echoes of Natureпјљ Wilderness River (1993) - [320]/03 Small Rapid.mp3
/Users/Bob/Music/[nature sounds] - Echoes of Natureпјљ Wilderness River (1993) - [V2]/03 Small Rapid.mp3
Track gain : 14.63 dB
Peak : 0.256012
CRC32 hash (test run) : 189B1432
CRC32 hash : 189B1432
CRC32 hash (skip zero) : 1C888C24
AccurateRip v1 signature : 53C4B795
AccurateRip v2 signature : 56C21407
->Accurately ripped (v1, confidence 6/6)
Statistics
Read error : 0
Jitter error (maybe fixed) : 0
Retry sector count : 0
Damaged sector count : 0
Track 04
Filename : /Users/Bob/Music/[nature sounds] - Echoes of Natureпјљ Wilderness River (1993) - [FLAC]/04 Crickets & Water.flac
/Users/Bob/Music/[nature sounds] - Echoes of Natureпјљ Wilderness River (1993) - [V0]/04 Crickets & Water.mp3
/Users/Bob/Music/[nature sounds] - Echoes of Natureпјљ Wilderness River (1993) - [320]/04 Crickets & Water.mp3
/Users/Bob/Music/[nature sounds] - Echoes of Natureпјљ Wilderness River (1993) - [V2]/04 Crickets & Water.mp3
Track gain : 8.08 dB
Peak : 0.334229
CRC32 hash (test run) : 7A4CCE06
CRC32 hash : 7A4CCE06
CRC32 hash (skip zero) : 4269AF46
AccurateRip v1 signature : 37971715
AccurateRip v2 signature : 3CE334C1
->Accurately ripped (v1, confidence 5/5)
Statistics
Read error : 0
Jitter error (maybe fixed) : 0
Retry sector count : 0
Damaged sector count : 0
No errors occurred
End of status report

Содержание индексной карты (.CUE)

TITLE "Wilderness River"
PERFORMER "Echoes Of Nature"
REM GENRE Environmental, Relaxation
REM DATE 1993
REM DISCID 3A0E1B04
FILE "01. Big River.flac" WAVE
TRACK 01 AUDIO
TITLE "Big River"
INDEX 01 00:00:00
FILE "02. Streamside Songbirds.flac" WAVE
TRACK 02 AUDIO
TITLE "Streamside Songbirds"
INDEX 01 00:00:00
FILE "03. Small Rapid.flac" WAVE
TRACK 03 AUDIO
TITLE "Small Rapid"
INDEX 01 00:00:00
FILE "04. Crickets & Water.flac" WAVE
TRACK 04 AUDIO
TITLE "Crickets & Water"
INDEX 01 00:00:00

Лог проверки качества

AUDIOCHECKER v2.0 beta (build 457) - by Dester - opdester@freemail.hu
~~~~~~~~~~~~~~~~~~~~~~~~~~~~~~~~~~
-=== DO NOT EDIT THIS FILE! ===-
Path: ...\Echoes Of Nature - 1993 - Wilderness River {LaserLight 12 254}
1 -=- 01. Big River.flac -=- CDDA (100%)
2 -=- 02. Streamside Songbirds.flac -=- CDDA (100%)
3 -=- 03. Small Rapid.flac -=- CDDA (100%)
4 -=- 04. Crickets & Water.flac -=- CDDA (100%)
Summary 100,00% CDDA
108404596

AccurateRip

[CUETools log; Date: 12.01.2013 14:42:40; Version: 2.0.9]
[CTDB TOCID: StPqxx7jS3hSJPQssUAqkS7fCvA-] found.
[ CTDBID ] Status
[5d1fba2a] (1/1) Accurately ripped
[AccurateRip ID: 000acdd8-002abdf6-3a0e1b04] found.
Track [ CRC ] Status
01 [169a9a37] (6/6) Accurately ripped
02 [53db6fac] (6/6) Accurately ripped
03 [53c4b795] (6/6) Accurately ripped
04 [37971715] (5/5) Accurately ripped
Track Peak [ CRC32 ] [W/O NULL]
-- 46,6 [97545820] [4C00143C]
01 46,6 [EA636D5C] [1F2452A3]
02 37,9 [C351F5D6] [932D7022]
03 25,6 [189B1432] [1C888C24]
04 33,4 [7A4CCE06] [4269AF46]
 
[cybertorrent.ru].t12554.torrent 
Торрент: Зарегистрирован [ 2018-02-20 07:45 ] · 7190A69F1EF22161750D5B96B45DAD02FFF50437

Скачать .torrent

Скачать

15 KB

Статус: проверено
Скачан: 0 раз
Размер: 352 MB
Профиль [ЛС]
Показать сообщения:    

Текущее время: 22-Июл 18:24

Часовой пояс: UTC ± 0



Вы не можете начинать темы
Вы не можете отвечать на сообщения
Вы не можете редактировать свои сообщения
Вы не можете удалять свои сообщения
Вы не можете голосовать в опросах
Вы не можете прикреплять файлы к сообщениям
Вы можете скачивать файлы