Статистика раздачи
Размер:  322 MB   |    Зарегистрирован:  8 месяцев 25 дней   |    Скачан:  0 раз

Полного источника не было: Никогда

Личеров:  1  [  0 KB/s  ]  
 
   
 
 

safari ®

Пол:
Мужской
Стаж:
9 месяцев 1 день
Сообщений:
98

Echoes Of Nature – Bayou
Жанр: Звуки природы / Environmental, Relaxation
Год издания: 1993
Label: LaserLight
Номер по каталогу: 12 252
Аудиокодек: FLAC
Тип рипа: tracks+.cue
Битрейт аудио: lossless
Продолжительность: 60:02
Сканов нет
Треклист:
01. Twilight (17:13)
02. Pig Frogs (17:35)
03. Backwater Chorus (25:13)
 

Лог создания рипа

Exact Audio Copy V1.0 beta 3 from 29. August 2011
EAC extraction logfile from 3. January 2013, 16:53
Echos of Nature / Bayou
Used drive : hp BDDVDRW CT10L Adapter: 0 ID: 1
Read mode : Secure
Utilize accurate stream : Yes
Defeat audio cache : Yes
Make use of C2 pointers : No
Read offset correction : 667
Overread into Lead-In and Lead-Out : No
Fill up missing offset samples with silence : Yes
Delete leading and trailing silent blocks : No
Null samples used in CRC calculations : Yes
Used interface : Native Win32 interface for Win NT & 2000
Gap handling : Appended to previous track
Used output format : User Defined Encoder
Selected bitrate : 1024 kBit/s
Quality : High
Add ID3 tag : No
Command line compressor : C:\Program Files (x86)\Exact Audio Copy\Flac\flac.exe
Additional command line options : -8 -V -T "ARTIST=%artist%" -T "TITLE=%title%" -T "ALBUM=%albumtitle%" -T "DATE=%year%" -T "TRACKNUMBER=%tracknr%" -T "GENRE=%genre%" -T "PERFORMER=%albuminterpret%" -T "COMPOSER=%composer%" %haslyrics%--tag-from-file=LYRICS="%lyricsfile%"%haslyrics% -T "ALBUMARTIST=%albumartist%" -T "DISCNUMBER=%cdnumber%" -T "TOTALDISCS=%totalcds%" -T "TOTALTRACKS=%numtracks%" -T "COMMENT=%comment%" %source% -o %dest%
TOC of the extracted CD
Track | Start | Length | Start sector | End sector
---------------------------------------------------------
1 | 0:00.00 | 17:13.18 | 0 | 77492
2 | 17:13.18 | 17:35.25 | 77493 | 156642
3 | 34:48.43 | 25:13.17 | 156643 | 270134
Track 1
Filename C:\EAC_rips\Echoes of Nature - Bayou (1993) [FLAC]\01 - Twilight.wav
Pre-gap length 0:00:02.00
Peak level 61.6 %
Extraction speed 3.1 X
Track quality 100.0 %
Test CRC 793DE863
Copy CRC 793DE863
Cannot be verified as accurate (confidence 7) [E6D049AA], AccurateRip returned [AC9B4425] (AR v2)
Copy OK
Track 2
Filename C:\EAC_rips\Echoes of Nature - Bayou (1993) [FLAC]\02 - Pig Frogs.wav
Peak level 52.8 %
Extraction speed 4.0 X
Track quality 100.0 %
Test CRC DB568864
Copy CRC DB568864
Cannot be verified as accurate (confidence 6) [B57C2392], AccurateRip returned [D53F08A7] (AR v2)
Copy OK
Track 3
Filename C:\EAC_rips\Echoes of Nature - Bayou (1993) [FLAC]\03 - Backwater Chorus.wav
Peak level 43.9 %
Extraction speed 1.4 X
Track quality 99.9 %
Test CRC D19F8154
Copy CRC D19F8154
Cannot be verified as accurate (confidence 6) [4E2735D9], AccurateRip returned [52DCAB1B] (AR v2)
Copy OK
No tracks could be verified as accurate
You may have a different pressing from the one(s) in the database
No errors occurred
End of status report
---- CUETools DB Plugin V2.1.3
[CTDB TOCID: Jm3FjboX4mmk2PKHQnPX5mpbYH8-] found, Submit result: Jm3FjboX4mmk2PKHQnPX5mpbYH8- has been confirmed
[e0d8d26c] (2/2) Accurately ripped
==== Log checksum AFEC40C2B677313311C3CB5F78A284748B3EB7123BC76D57E0AD873B438B2463 ====

Содержание индексной карты (.CUE)

REM GENRE Environmental, Relaxation
REM DATE 1993
REM DISCID 160E1103
REM COMMENT ExactAudioCopy v1.0b3
PERFORMER "Echoes Of Nature"
TITLE "Bayou"
FILE "01. Twilight.flac" WAVE
TRACK 01 AUDIO
TITLE "Twilight"
INDEX 01 00:00:00
FILE "02. Pig Frogs.flac" WAVE
TRACK 02 AUDIO
TITLE "Pig Frogs"
INDEX 01 00:00:00
FILE "03. Backwater Chorus.flac" WAVE
TRACK 03 AUDIO
TITLE "Backwater Chorus"
INDEX 01 00:00:00

Лог проверки качества

AUDIOCHECKER v2.0 beta (build 457) - by Dester - opdester@freemail.hu
~~~~~~~~~~~~~~~~~~~~~~~~~~~~~~~~~~
-=== DO NOT EDIT THIS FILE! ===-
Path: ...\Echoes Of Nature - 1993 - Bayou {LaserLight 12 252}
1 -=- 01. Twilight.flac -=- CDDA (100%)
2 -=- 02. Pig Frogs.flac -=- CDDA (100%)
3 -=- 03. Backwater Chorus.flac -=- CDDA (100%)
Summary 100,00% CDDA
65194308

AccurateRip

[CUETools log; Date: 12.01.2013 16:42:05; Version: 2.0.9]
[CTDB TOCID: Jm3FjboX4mmk2PKHQnPX5mpbYH8-] BadRequest.
[AccurateRip ID: 0007b1cf-001a05f0-160e1103] found.
Track [ CRC ] Status
01 [bc82e126] (00/11) No match
02 [afe69884] (00/10) No match
03 [8e9cae4c] (00/10) No match
Offsetted by -664:
01 [8a021337] (02/11) Accurately ripped
02 [e1d17bde] (02/10) Accurately ripped
03 [8f5f4613] (02/10) Accurately ripped
Offsetted by 664:
01 [ac9b4425] (07/11) Accurately ripped
02 [d53f08a7] (06/10) Accurately ripped
03 [52dcab1b] (06/10) Accurately ripped
Track Peak [ CRC32 ] [W/O NULL] [ LOG ]
-- 61,6 [FD84BB53] [C2647D99]
01 61,6 [793DE863] [26AB4944] CRC32
02 52,8 [DB568864] [320FB175] CRC32
03 43,9 [D19F8154] [2097D6D3] CRC32
 
[cybertorrent.ru].t12555.torrent 
Торрент: Зарегистрирован [ 2018-02-20 07:45 ] · 7667EDB3FB289988DA529843BC1D5C6CFB98511D

Скачать .torrent

Скачать

14 KB

Статус: проверено
Скачан: 0 раз
Размер: 322 MB
Профиль [ЛС]
Показать сообщения:    

Текущее время: 17-Ноя 23:10

Часовой пояс: UTC ± 0



Вы не можете начинать темы
Вы не можете отвечать на сообщения
Вы не можете редактировать свои сообщения
Вы не можете удалять свои сообщения
Вы не можете голосовать в опросах
Вы не можете прикреплять файлы к сообщениям
Вы можете скачивать файлы
Torrents24.ru открытый BitTorrent Torrents24.pl открытый BitTorrent CyberTorrent.ru открытый BitTorrent BtList.ru рейтинг BitTorrent трекеров Яндекс.Метрика