Статистика раздачи
Размер:  298 MB   |    Зарегистрирован:  7 месяцев 3 дня   |    Скачан:  0 раз

Полного источника не было: Никогда

Личеров:  1  [  0 KB/s  ]  
 
   
 
 

safari ®

Пол:
Мужской
Стаж:
7 месяцев 7 дней
Сообщений:
98

Echoes Of Nature – Tropical Lagoon
Жанр: Звуки природы / Environmental, Relaxation
Год издания: 1995
Label: LaserLight
Номер по каталогу: 12 515
Аудиокодек: FLAC
Тип рипа: tracks+.cue
Битрейт аудио: lossless
Продолжительность: 63:19
Сканов нет
Треклист:
01. Dolphin Medley (4:35)
02. Common Dolphins (5:36)
03. Glistening Beach (26:52)
04. Magnificent Frigatebirds (20:39)
05. Sunset Beach (5:36)
 

Лог создания рипа

Exact Audio Copy V1.0 beta 1 from 15. November 2010
EAC extraction logfile from 2. February 2011, 11:46
Echoes of Nature / Tropical Lagoon
Used drive : ARTEC WRR-52X Adapter: 1 ID: 0
Read mode : Secure
Utilize accurate stream : Yes
Defeat audio cache : Yes
Make use of C2 pointers : No
Read offset correction : 97
Overread into Lead-In and Lead-Out : No
Fill up missing offset samples with silence : Yes
Delete leading and trailing silent blocks : No
Null samples used in CRC calculations : Yes
Used interface : Native Win32 interface for Win NT & 2000
Gap handling : Appended to previous track
Used output format : User Defined Encoder
Selected bitrate : 320 kBit/s
Quality : High
Add ID3 tag : No
Command line compressor : C:\Program Files\Exact Audio Copy\Flac\flac.exe
Additional command line options : -V -8 -T "artist=%a" -T "title=%t" -T "album=%g" -T "date=%y" -T "tracknumber=%n" -T "genre=%m" %s
TOC of the extracted CD
Track | Start | Length | Start sector | End sector
---------------------------------------------------------
1 | 0:00.00 | 4:35.17 | 0 | 20641
2 | 4:35.17 | 5:35.68 | 20642 | 45834
3 | 10:11.10 | 26:52.20 | 45835 | 166754
4 | 37:03.30 | 20:39.25 | 166755 | 259704
5 | 57:42.55 | 5:35.62 | 259705 | 284891
Track 1
Filename E:\MP3\Echoes of Nature - 1995 - Tropical Lagoon\01 - Dolphin Medley.wav
Pre-gap length 0:00:02.00
Peak level 26.2 %
Extraction speed 2.9 X
Track quality 100.0 %
Test CRC B3ADCA65
Copy CRC B3ADCA65
Accurately ripped (confidence 2) [5078B341]
Copy OK
Track 2
Filename E:\MP3\Echoes of Nature - 1995 - Tropical Lagoon\02 - Common Dolphins.wav
Peak level 12.7 %
Extraction speed 3.2 X
Track quality 100.0 %
Test CRC 0976C776
Copy CRC 0976C776
Accurately ripped (confidence 2) [2C3BEBF9]
Copy OK
Track 3
Filename E:\MP3\Echoes of Nature - 1995 - Tropical Lagoon\03 - Glistening Beach.wav
Peak level 48.7 %
Extraction speed 2.8 X
Track quality 99.9 %
Test CRC 890AB53E
Copy CRC 890AB53E
Accurately ripped (confidence 2) [3CBCE3F8]
Copy OK
Track 4
Filename E:\MP3\Echoes of Nature - 1995 - Tropical Lagoon\04 - Magnificent Frigatebirds.wav
Peak level 38.3 %
Extraction speed 2.9 X
Track quality 100.0 %
Test CRC 51AE4CC6
Copy CRC 51AE4CC6
Accurately ripped (confidence 2) [A3735CE3]
Copy OK
Track 5
Filename E:\MP3\Echoes of Nature - 1995 - Tropical Lagoon\05 - Sunset Beach.wav
Peak level 61.0 %
Extraction speed 2.7 X
Track quality 100.0 %
Test CRC 833E9130
Copy CRC 833E9130
Accurately ripped (confidence 2) [E57B57ED]
Copy OK
All tracks accurately ripped
No errors occurred
End of status report

Содержание индексной карты (.CUE)

REM GENRE Environmental, Relaxation
REM DATE 1995
REM DISCID 380ED605
REM COMMENT "ExactAudioCopy v1.0b1"
PERFORMER "Echoes Of Nature"
TITLE "Tropical Lagoon"
FILE "01. Dolphin Medley.flac" WAVE
TRACK 01 AUDIO
INDEX 01 00:00:00
FILE "02. Common Dolphins.flac" WAVE
TRACK 02 AUDIO
INDEX 01 00:00:00
FILE "03. Glistening Beach.flac" WAVE
TRACK 03 AUDIO
INDEX 01 00:00:00
FILE "04. Magnificent Frigatebirds.flac" WAVE
TRACK 04 AUDIO
INDEX 01 00:00:00
FILE "05. Sunset Beach.flac" WAVE
TRACK 05 AUDIO
INDEX 01 00:00:00[pre]

Лог проверки качества

[pre]AUDIOCHECKER v2.0 beta (build 457) - by Dester - opdester@freemail.hu
~~~~~~~~~~~~~~~~~~~~~~~~~~~~~~~~~~
-=== DO NOT EDIT THIS FILE! ===-
Path: ...\Echoes Of Nature - 1995 - Tropical Lagoon {LaserLight 12 515}
1 -=- 01. Dolphin Medley.flac -=- CDDA (100%)
2 -=- 02. Common Dolphins.flac -=- CDDA (99%)
3 -=- 03. Glistening Beach.flac -=- CDDA (100%)
4 -=- 04. Magnificent Frigatebirds.flac -=- CDDA (99%)
5 -=- 05. Sunset Beach.flac -=- CDDA (100%)
Summary 99,60% CDDA
154627668

AccurateRip

[CUETools log; Date: 12.01.2013 20:34:50; Version: 2.0.9]
[CTDB TOCID: 5jTfdtUYgphKLBYv8ZxqEbzswHQ-] found.
[ CTDBID ] Status
[f24072ed] (3/3) Accurately ripped
[AccurateRip ID: 000bde65-003acd77-380ed605] found.
Track [ CRC ] Status
01 [5078b341] (3/7) Accurately ripped
02 [2c3bebf9] (3/5) Accurately ripped
03 [3cbce3f8] (3/7) Accurately ripped
04 [a3735ce3] (2/6) Accurately ripped
05 [e57b57ed] (2/4) Accurately ripped
Offsetted by -861:
01 [a87f8271] (2/7) Accurately ripped
02 [1448ea8e] (2/5) Accurately ripped
03 [7fc79a66] (2/7) Accurately ripped
04 [05ff07af] (2/6) Accurately ripped
05 [35e71eb4] (2/4) No match but offset
Offsetted by -238:
01 [d8fa340a] (2/7) Accurately ripped
02 [bfcde031] (0/5) No match
03 [cf0f062c] (2/7) Accurately ripped
04 [04adecc7] (2/6) Accurately ripped
05 [b45f25e8] (0/4) No match
Track Peak [ CRC32 ] [W/O NULL] [ LOG ]
-- 61,0 [C1C502B8] [358B5CBB]
01 26,2 [B3ADCA65] [925178FA] CRC32
02 12,7 [0976C776] [77EF0FB5] CRC32
03 48,7 [890AB53E] [9954CBD3] CRC32
04 38,3 [51AE4CC6] [8A9F4C62] CRC32
05 61,0 [833E9130] [36D58635] CRC32
[cybertorrent.ru].t12556.torrent 
Торрент: Зарегистрирован [ 2018-02-20 07:45 ] · 3219DA2DA9D2723260E3EECAD5F33DE6B353D8CA

Скачать .torrent

Скачать

13 KB

Статус: проверено
Скачан: 0 раз
Размер: 298 MB
Профиль [ЛС]
Показать сообщения:    

Текущее время: 24-Сен 06:09

Часовой пояс: UTC ± 0



Вы не можете начинать темы
Вы не можете отвечать на сообщения
Вы не можете редактировать свои сообщения
Вы не можете удалять свои сообщения
Вы не можете голосовать в опросах
Вы не можете прикреплять файлы к сообщениям
Вы можете скачивать файлы
Torrents24.ru открытый BitTorrent Torrents24.pl открытый BitTorrent CyberTorrent.ru открытый BitTorrent BtList.ru рейтинг BitTorrent трекеров Яндекс.Метрика