Статистика раздачи
Размер:  250 MB   |    Зарегистрирован:  5 месяцев 2 дня   |    Скачан:  0 раз

Полного источника не было: Никогда

Личеров:  2  [  0 KB/s  ]  
 
   
 
 

safari ®

Пол:
Мужской
Стаж:
5 месяцев 6 дней
Сообщений:
98

Tsuruhiko Kabaya / WILD BIRDS, living in Japan 2 - Honshu, Shikoku, Kyushu Part I
Жанр: Nature, Birds, Field Recording
Страна-производитель диска: Japan
Год издания: 1990
Издатель (лейбл): Columbia Records
Номер по каталогу: CG-4692
Аудиокодек: FLAC (*.flac)
Тип рипа: tracks+.cue
Битрейт аудио: lossless
Продолжительность: 53:18
Источник (релизер): What.cd (Hakuin)
Наличие сканов в содержимом раздачи: нет-Треклист:
01 Falco peregrinus~Phalacrocorax filamentosus~Pandion haliaetus
02 Monticola solitarius~Milvus migrans~Sterna albifrons~Phalacrocorax
03 Hirundo rustica~Hirundo daurica
04 Bambusicola thoracica~Emberiza cioides~Parus major
05 Acrocephalus arundinaceus~Emberiza yessoensis~Podiceps ruficollis~Cisticola juncidis
06 Microsarcops cinereus~Porzana fusca~Rostratula benghalensis
07 Alauda arvensis~Colony of white heron~Terpsiphone atrocaudata
08 Parus varius~Aegithalos caudatus~Butastur indicus
09 Phylloscopus occipitalis~Zosterops japonica~Ninox scutulata~Strix uralensis
10 Cettia diphone~Cuculus canorus~Emberiza fucata
11 Acrocephalus bistrigiceps~Emberiza spodocephala~Saxicola torquata~Coturnix coturnix

Лог создания рипа

X Lossless Decoder version 20121222 (142.2)
XLD extraction logfile from 2013-01-16 13:45:46 +0900
野鳥 / 日本の野鳥大全集2-本州・四国・九州編1
Used drive : MATSHITA DVD-R UJ-8A8 (revision HB14)
Media type : Pressed CD
Ripper mode : XLD Secure Ripper
Disable audio cache : OK for the drive with a cache less than 1375KiB
Make use of C2 pointers : NO
Read offset correction : 102
Max retry count : 20
Gap status : Analyzed, Appended (except HTOA)
TOC of the extracted CD
Track | Start | Length | Start sector | End sector
---------------------------------------------------------
1 | 00:00:00 | 04:58:62 | 0 | 22411
2 | 04:58:62 | 06:01:00 | 22412 | 49486
3 | 10:59:62 | 02:56:53 | 49487 | 62739
4 | 13:56:40 | 04:33:60 | 62740 | 83274
5 | 18:30:25 | 06:03:60 | 83275 | 110559
6 | 24:34:10 | 05:24:25 | 110560 | 134884
7 | 29:58:35 | 04:02:67 | 134885 | 153101
8 | 34:01:27 | 03:18:63 | 153102 | 168014
9 | 37:20:15 | 05:11:47 | 168015 | 191386
10 | 42:31:62 | 05:12:63 | 191387 | 214849
11 | 47:44:50 | 05:33:62 | 214850 | 239886
AccurateRip Summary
Disc not found in AccurateRip DB.
All Tracks
Album gain : 0.52 dB
Peak : 0.745300
Statistics
Read error : 0
Jitter error (maybe fixed) : 1
Retry sector count : 15
Damaged sector count : 0
Track 01
Filename : /Volumes/G/野鳥 - 日本の野鳥大全集2-本州・四国・九州編1 (1990) [FLAC]/01 ハヤブサ・ウミウ・ミサゴ.flac
Pre-gap length : 00:02:00
Track gain : 0.50 dB
Peak : 0.745300
CRC32 hash (test run) : 692549B4
CRC32 hash : 692549B4
CRC32 hash (skip zero) : E64AF92C
AccurateRip v1 signature : 022A9126
AccurateRip v2 signature : 8AB791E4
->Track not present in AccurateRip database.
Statistics
Read error : 0
Jitter error (maybe fixed) : 0
Retry sector count : 0
Damaged sector count : 0
Track 02
Filename : /Volumes/G/野鳥 - 日本の野鳥大全集2-本州・四国・九州編1 (1990) [FLAC]/02 イソヒヨドリ・トビ・コアジサシ・カワウ.flac
Pre-gap length : 00:04:35
Track gain : 4.84 dB
Peak : 0.491760
CRC32 hash (test run) : 42BE7D3A
CRC32 hash : 42BE7D3A
CRC32 hash (skip zero) : BE6C8C9D
AccurateRip v1 signature : ADFCB43C
AccurateRip v2 signature : C792A931
->Track not present in AccurateRip database.
Statistics
Read error : 0
Jitter error (maybe fixed) : 0
Retry sector count : 0
Damaged sector count : 0
Track 03
Filename : /Volumes/G/野鳥 - 日本の野鳥大全集2-本州・四国・九州編1 (1990) [FLAC]/03 ツバメ・コシアカツバメ.flac
Pre-gap length : 00:04:62
Track gain : 0.16 dB
Peak : 0.633728
CRC32 hash (test run) : CD9646F9
CRC32 hash : CD9646F9
CRC32 hash (skip zero) : 97CDAD04
AccurateRip v1 signature : F5ED9A07
AccurateRip v2 signature : 108B6C84
->Track not present in AccurateRip database.
Statistics
Read error : 0
Jitter error (maybe fixed) : 0
Retry sector count : 0
Damaged sector count : 0
Track 04
Filename : /Volumes/G/野鳥 - 日本の野鳥大全集2-本州・四国・九州編1 (1990) [FLAC]/04 コジュケイ・ホオジロ・シジュウカラ.flac
Pre-gap length : 00:04:60
Track gain : 0.03 dB
Peak : 0.342834
CRC32 hash (test run) : 9D737499
CRC32 hash : 9D737499
CRC32 hash (skip zero) : 95F7B4FD
AccurateRip v1 signature : 50788B30
AccurateRip v2 signature : 4AA0A09E
->Track not present in AccurateRip database.
Statistics
Read error : 0
Jitter error (maybe fixed) : 0
Retry sector count : 0
Damaged sector count : 0
Track 05
Filename : /Volumes/G/野鳥 - 日本の野鳥大全集2-本州・四国・九州編1 (1990) [FLAC]/05 オオヨシキリ・コジュリン・カイツブリ・セッカ.flac
Pre-gap length : 00:03:35
Track gain : 1.27 dB
Peak : 0.322968
CRC32 hash (test run) : 30D385C5
CRC32 hash : 30D385C5
CRC32 hash (skip zero) : E01B8B88
AccurateRip v1 signature : F789A0FA
AccurateRip v2 signature : D0E06DDC
->Track not present in AccurateRip database.
Statistics
Read error : 0
Jitter error (maybe fixed) : 0
Retry sector count : 0
Damaged sector count : 0
Track 06
Filename : /Volumes/G/野鳥 - 日本の野鳥大全集2-本州・四国・九州編1 (1990) [FLAC]/06 ケリ・ヒクイナ・タマシギ.flac
Pre-gap length : 00:02:53
Track gain : 0.42 dB
Peak : 0.553406
CRC32 hash (test run) : 7AEFD387
CRC32 hash : 7AEFD387
CRC32 hash (skip zero) : E7C62427
AccurateRip v1 signature : D75A530C
AccurateRip v2 signature : 08A1C513
->Track not present in AccurateRip database.
Statistics
Read error : 0
Jitter error (maybe fixed) : 0
Retry sector count : 0
Damaged sector count : 0
Track 07
Filename : /Volumes/G/野鳥 - 日本の野鳥大全集2-本州・四国・九州編1 (1990) [FLAC]/07 ヒバリ・シラサギのコロニー・サンコウチョウ.flac
Pre-gap length : 00:03:50
Track gain : -2.14 dB
Peak : 0.507202
CRC32 hash (test run) : 18B674EC
CRC32 hash : 18B674EC
CRC32 hash (skip zero) : CDB3E389
AccurateRip v1 signature : AC1A8DA8
AccurateRip v2 signature : 2B0E33AE
->Track not present in AccurateRip database.
Statistics
Read error : 0
Jitter error (maybe fixed) : 1
Retry sector count : 15
Damaged sector count : 0
Track 08
Filename : /Volumes/G/野鳥 - 日本の野鳥大全集2-本州・四国・九州編1 (1990) [FLAC]/08 ヤマガラ・エナガ・サシバ.flac
Pre-gap length : 00:04:55
Track gain : 3.19 dB
Peak : 0.312256
CRC32 hash (test run) : A8855A3D
CRC32 hash : A8855A3D
CRC32 hash (skip zero) : 14A02044
AccurateRip v1 signature : 5C105C2A
AccurateRip v2 signature : 51495BE4
->Track not present in AccurateRip database.
Statistics
Read error : 0
Jitter error (maybe fixed) : 0
Retry sector count : 0
Damaged sector count : 0
Track 09
Filename : /Volumes/G/野鳥 - 日本の野鳥大全集2-本州・四国・九州編1 (1990) [FLAC]/09 センダイムシクイ・メジロ・アオバズク・フクロウ.flac
Pre-gap length : 00:04:10
Track gain : 4.83 dB
Peak : 0.388306
CRC32 hash (test run) : B9323FFE
CRC32 hash : B9323FFE
CRC32 hash (skip zero) : 29662D33
AccurateRip v1 signature : E3B51AE7
AccurateRip v2 signature : 7FBCD52D
->Track not present in AccurateRip database.
Statistics
Read error : 0
Jitter error (maybe fixed) : 0
Retry sector count : 0
Damaged sector count : 0
Track 10
Filename : /Volumes/G/野鳥 - 日本の野鳥大全集2-本州・四国・九州編1 (1990) [FLAC]/10 ウグイス・カッコウ・ホオアカ.flac
Pre-gap length : 00:04:00
Track gain : 5.40 dB
Peak : 0.404175
CRC32 hash (test run) : 005C569C
CRC32 hash : 005C569C
CRC32 hash (skip zero) : 6CC4D189
AccurateRip v1 signature : 7FB3A53F
AccurateRip v2 signature : B57243A0
->Track not present in AccurateRip database.
Statistics
Read error : 0
Jitter error (maybe fixed) : 0
Retry sector count : 0
Damaged sector count : 0
Track 11
Filename : /Volumes/G/野鳥 - 日本の野鳥大全集2-本州・四国・九州編1 (1990) [FLAC]/11 コヨシキリ・アオジ・ノビタキ・ウズラ.flac
Pre-gap length : 00:04:35
Track gain : -1.28 dB
Peak : 0.441315
CRC32 hash (test run) : 909D1902
CRC32 hash : 909D1902
CRC32 hash (skip zero) : 7DE53C76
AccurateRip v1 signature : ED3D6A08
AccurateRip v2 signature : C252BE27
->Track not present in AccurateRip database.
Statistics
Read error : 0
Jitter error (maybe fixed) : 0
Retry sector count : 0
Damaged sector count : 0
No errors occurred
End of status report

Содержание индексной карты (.CUE)

TITLE "日本の野鳥大全集2-本州・四国・九州編1"
PERFORMER "野鳥"
REM GENRE "New Age"
REM DATE "1990"
REM DISCNUMBER 2
REM TOTALDISCS 5
REM DISCID 7D0C7E0B
REM REPLAYGAIN_ALBUM_GAIN 0.52 dB
REM REPLAYGAIN_ALBUM_PEAK 0.745300
FILE "01 ハヤブサ・ウミウ・ミサゴ.flac" WAVE
TRACK 01 AUDIO
TITLE "ハヤブサ・ウミウ・ミサゴ"
REM REPLAYGAIN_TRACK_GAIN 0.50 dB
REM REPLAYGAIN_TRACK_PEAK 0.745300
INDEX 01 00:00:00
TRACK 02 AUDIO
TITLE "イソヒヨドリ・トビ・コアジサシ・カワウ"
REM REPLAYGAIN_TRACK_GAIN 4.84 dB
REM REPLAYGAIN_TRACK_PEAK 0.491760
INDEX 00 04:54:27
FILE "02 イソヒヨドリ・トビ・コアジサシ・カワウ.flac" WAVE
INDEX 01 00:00:00
TRACK 03 AUDIO
TITLE "ツバメ・コシアカツバメ"
REM REPLAYGAIN_TRACK_GAIN 0.16 dB
REM REPLAYGAIN_TRACK_PEAK 0.633728
INDEX 00 05:56:13
FILE "03 ツバメ・コシアカツバメ.flac" WAVE
INDEX 01 00:00:00
TRACK 04 AUDIO
TITLE "コジュケイ・ホオジロ・シジュウカラ"
REM REPLAYGAIN_TRACK_GAIN 0.03 dB
REM REPLAYGAIN_TRACK_PEAK 0.342834
INDEX 00 02:51:68
FILE "04 コジュケイ・ホオジロ・シジュウカラ.flac" WAVE
INDEX 01 00:00:00
TRACK 05 AUDIO
TITLE "オオヨシキリ・コジュリン・カイツブリ・セッカ"
REM REPLAYGAIN_TRACK_GAIN 1.27 dB
REM REPLAYGAIN_TRACK_PEAK 0.322968
INDEX 00 04:30:25
FILE "05 オオヨシキリ・コジュリン・カイツブリ・セッカ.flac" WAVE
INDEX 01 00:00:00
TRACK 06 AUDIO
TITLE "ケリ・ヒクイナ・タマシギ"
REM REPLAYGAIN_TRACK_GAIN 0.42 dB
REM REPLAYGAIN_TRACK_PEAK 0.553406
INDEX 00 06:01:07
FILE "06 ケリ・ヒクイナ・タマシギ.flac" WAVE
INDEX 01 00:00:00
TRACK 07 AUDIO
TITLE "ヒバリ・シラサギのコロニー・サンコウチョウ"
REM REPLAYGAIN_TRACK_GAIN -2.14 dB
REM REPLAYGAIN_TRACK_PEAK 0.507202
INDEX 00 05:20:50
FILE "07 ヒバリ・シラサギのコロニー・サンコウチョウ.flac" WAVE
INDEX 01 00:00:00
TRACK 08 AUDIO
TITLE "ヤマガラ・エナガ・サシバ"
REM REPLAYGAIN_TRACK_GAIN 3.19 dB
REM REPLAYGAIN_TRACK_PEAK 0.312256
INDEX 00 03:58:12
FILE "08 ヤマガラ・エナガ・サシバ.flac" WAVE
INDEX 01 00:00:00
TRACK 09 AUDIO
TITLE "センダイムシクイ・メジロ・アオバズク・フクロウ"
REM REPLAYGAIN_TRACK_GAIN 4.83 dB
REM REPLAYGAIN_TRACK_PEAK 0.388306
INDEX 00 03:14:53
FILE "09 センダイムシクイ・メジロ・アオバズク・フクロウ.flac" WAVE
INDEX 01 00:00:00
TRACK 10 AUDIO
TITLE "ウグイス・カッコウ・ホオアカ"
REM REPLAYGAIN_TRACK_GAIN 5.40 dB
REM REPLAYGAIN_TRACK_PEAK 0.404175
INDEX 00 05:07:47
FILE "10 ウグイス・カッコウ・ホオアカ.flac" WAVE
INDEX 01 00:00:00
TRACK 11 AUDIO
TITLE "コヨシキリ・アオジ・ノビタキ・ウズラ"
REM REPLAYGAIN_TRACK_GAIN -1.28 dB
REM REPLAYGAIN_TRACK_PEAK 0.441315
INDEX 00 05:08:28
FILE "11 コヨシキリ・アオジ・ノビタキ・ウズラ.flac" WAVE
INDEX 01 00:00:00

Лог проверки качества

AUDIOCHECKER v2.0 beta (build 457) - by Dester - opdester@freemail.hu
~~~~~~~~~~~~~~~~~~~~~~~~~~~~~~~~~~
-=== DO NOT EDIT THIS FILE! ===-
Path: ...\(1990) [FLAC]
01 -=- 04 Bambusicola thoracica~Emberiza cioides~Parus major.flac -=- CDDA (100%)
02 -=- 05 Acrocephalus arundinaceus~Emberiza yessoensis~Podiceps ruficollis~Cisticola juncidis.flac -=- CDDA (100%)
03 -=- 06 Microsarcops cinereus~Porzana fusca~Rostratula benghalensis.flac -=- CDDA (99%)
04 -=- 07 Alauda arvensis~Colony of white heron~Terpsiphone atrocaudata.flac -=- CDDA (100%)
05 -=- 08 Parus varius~Aegithalos caudatus~Butastur indicus.flac -=- CDDA (100%)
06 -=- 09 Phylloscopus occipitalis~Zosterops japonica~Ninox scutulata~Strix uralensis.flac -=- CDDA (100%)
07 -=- 10 Cettia diphone~Cuculus canorus~Emberiza fucata.flac -=- CDDA (100%)
08 -=- 11 Acrocephalus bistrigiceps~Emberiza spodocephala~Saxicola torquata~Coturnix coturnix.flac -=- CDDA (100%)
09 -=- 01 Falco peregrinus~Phalacrocorax filamentosus~Pandion haliaetus.flac -=- CDDA (100%)
10 -=- 02 Monticola solitarius~Milvus migrans~Sterna albifrons~Phalacrocorax.flac -=- CDDA (100%)
11 -=- 03 Hirundo rustica~Hirundo daurica.flac -=- CDDA (99%)
Summary 99,82% CDDA
103364708
[cybertorrent.ru].t12580.torrent 
Торрент: Зарегистрирован [ 2018-02-20 07:45 ] · 8AD878CE14A93CA3C4DC46D820A4CA6AECA8AA37

Скачать .torrent

Скачать

21 KB

Статус: проверено
Скачан: 0 раз
Размер: 250 MB
Профиль [ЛС]
Показать сообщения:    

Текущее время: 22-Июл 18:29

Часовой пояс: UTC ± 0



Вы не можете начинать темы
Вы не можете отвечать на сообщения
Вы не можете редактировать свои сообщения
Вы не можете удалять свои сообщения
Вы не можете голосовать в опросах
Вы не можете прикреплять файлы к сообщениям
Вы можете скачивать файлы