Статистика раздачи
Размер:  760 MB   |    Зарегистрирован:  3 месяца 27 дней   |    Скачан:  0 раз
DL-List: Нет

Полного источника не было: Никогда

 
     
 
 

MAGNAT ®

Пол:
Мужской
Стаж:
1 год 3 месяца
Сообщений:
8775

Ариберт Хайм: «Доктор Смерть» из Маутхаузена / Aribert Heim: The Doctor Death of Mauthausen
Дата/Год выпуска: 2017
Страна: Германия
Жанр: Документальный, война, история, биография
Продолжительность: 00:50:34
Перевод: Профессиональный (дублированный)
Телеканал: Viasat History
Описание: Осень 1941 года: молодой австрийский врач был направлен в концентрационный лагерь Маутхаузен. Всего шесть недель спустя он уже вызвал сотни смертей. Его звали Арибер Хайм. Его прозвали «Доктор Смерть» или «Мясник из Маутхаузена» и он был одним из самых жестоких палачей концлагеря. Кем был этот человек, который казался таким приятным, радостным и веселым?
Как он стал таким кровожадным монстром, настоящим мясником и большим поклонником Адольфа Гитлера, который использовал заключенных для проведения экспериментов? Этот документальный фильм расскажет о невероятной судьбе человека, который никогда не раскаялся и чье насилие отличалось извращенной жестокостью.
качество: HDTVRip
формат: AVI
Видео: 720x400 (1.80:1), 25 fps, XviD build 73 ~1899 kbps avg, 0.26 bit/pixel
Аудио: Русский, 48 kHz, AC3 Dolby Digital, 2/0 (L,R) ch, ~192.00 kbps avg

MediaInfo

Общее
Полное имя : D:\Запись\Ариберт Хайм\Ариберт.Хайм.Доктор.Смерть.2017.XviD.HDTVRip.alf62.avi
Формат : AVI
Формат/Информация : Audio Video Interleave
Размер файла : 760 Мбайт
Продолжительность : 50 м.
Общий поток : 2102 Кбит/сек
Программа кодирования : VirtualDubMod 1.5.10.3 | www.virtualdub-fr.org || (build 2550/release)
Библиотека кодирования : VirtualDubMod build 2550/release
Видео
Идентификатор : 0
Формат : MPEG-4 Visual
Профиль формата : Advanced Simple@L5
Параметр BVOP формата : 2
Параметр QPel формата : Нет
Параметр GMC формата : Без точки перехода
Параметр матрицы формата : Default (MPEG)
Идентификатор кодека : XVID
Идентификатор кодека/Подсказка : XviD
Продолжительность : 50 м.
Битрейт : 1900 Кбит/сек
Ширина : 720 пикселей
Высота : 400 пикселей
Соотношение сторон : 16:9
Частота кадров : 25,000 кадров/сек
Цветовое пространство : YUV
Субдискретизация насыщенности : 4:2:0
Битовая глубина : 8 бит
Тип развёртки : Прогрессивная
Метод сжатия : С потерями
Бит/(Пиксели*Кадры) : 0.264
Размер потока : 687 Мбайт (90%)
Библиотека кодирования : XviD 73
Аудио
Идентификатор : 1
Формат : AC-3
Формат/Информация : Audio Coding 3
Расширение режима : CM (complete main)
Параметр Endianness формата : Big
Идентификатор кодека : 2000
Продолжительность : 50 м.
Вид битрейта : Постоянный
Битрейт : 192 Кбит/сек
Каналы : 2 канала
Расположение каналов : Front: L R
Частота : 48,0 КГц
Частота кадров : 31,250 кадров/сек (1536 spf)
Метод сжатия : С потерями
Размер потока : 69,5 Мбайт (9%)
Выравнивание : Разделение по промежуткам
Продолжительность промежутка : 40 мс. (1,00 видеокадр)
Время предзагрузки промежутка : 500 мс.

Скриншоты

[cybertorrent.ru].t12586.torrent 
Торрент: Зарегистрирован [ 2020-03-07 17:39 ] · 0FA08D9FA44CCC6E37C7B36A44F1416A9E6ED593

Скачать .torrent

Скачать

15 KB

Статус: проверено
Скачан: 0 раз
Размер: 760 MB  ·  Тип торрента
terms.php
Профиль [ЛС]
Показать сообщения:    

Текущее время: 03-Июл 17:56

Часовой пояс: UTC ± 0



Вы не можете начинать темы
Вы не можете отвечать на сообщения
Вы не можете редактировать свои сообщения
Вы не можете удалять свои сообщения
Вы не можете голосовать в опросах
Вы не можете прикреплять файлы к сообщениям
Вы можете скачивать файлы