Статистика раздачи
Размер:  358 MB   |    Зарегистрирован:  5 месяцев 1 день   |    Скачан:  0 раз

Полного источника не было: Никогда

Личеров:  1  [  0 KB/s  ]  
 
   
 
 

safari ®

Пол:
Мужской
Стаж:
5 месяцев 5 дней
Сообщений:
98

Echoes Of Nature – Beluga Whales
Жанр: Звуки природы / Environmental, Relaxation
Год издания: 1995
Label: LaserLight
Номер по каталогу: 12 512
Аудиокодек: FLAC
Тип рипа: tracks+.cue
Битрейт аудио: lossless
Продолжительность: 60:23
Сканов нет
Треклист:
01. Beluga Party (21:00)
02. Deep Water (25:30)
03. Solo Singers (13:53)
 

Лог создания рипа

Exact Audio Copy V1.0 beta 3 from 29. August 2011
EAC extraction logfile from 2. February 2013, 8:05
[nature sounds] / Echoes of Nature: Beluga Whales
Used drive : HL-DT-STDVDRAM GH22NS70 Adapter: 0 ID: 0
Read mode : Secure
Utilize accurate stream : Yes
Defeat audio cache : Yes
Make use of C2 pointers : No
Read offset correction : 667
Overread into Lead-In and Lead-Out : No
Fill up missing offset samples with silence : Yes
Delete leading and trailing silent blocks : No
Null samples used in CRC calculations : Yes
Used interface : Native Win32 interface for Win NT & 2000
Gap handling : Appended to previous track
Used output format : User Defined Encoder
Selected bitrate : 128 kBit/s
Quality : High
Add ID3 tag : No
Command line compressor : C:\Program Files (x86)\Exact Audio Copy\Flac\flac.exe
Additional command line options : -8 -V -T "ARTIST=%artist%" -T "TITLE=%title%" -T "ALBUM=%albumtitle%" -T "DATE=%year%" -T "TRACKNUMBER=%tracknr%" -T "GENRE=%genre%" -T "PERFORMER=%albuminterpret%" -T "COMPOSER=%composer%" %haslyrics%--tag-from-file=LYRICS="%lyricsfile%"%haslyrics% -T "ALBUMARTIST=%albumartist%" -T "DISCNUMBER=%cdnumber%" -T "TOTALDISCS=%totalcds%" -T "TOTALTRACKS=%numtracks%" -T "COMMENT=%comment%" %source% -o %dest%
TOC of the extracted CD
Track | Start | Length | Start sector | End sector
---------------------------------------------------------
1 | 0:00.00 | 21:00.15 | 0 | 94514
2 | 21:00.15 | 25:30.00 | 94515 | 209264
3 | 46:30.15 | 13:53.10 | 209265 | 271749
Track 1
Filename D:\Encoding\EAC\01 Beluga Party.wav
Pre-gap length 0:00:02.00
Peak level 99.4 %
Extraction speed 1.5 X
Track quality 100.0 %
Test CRC BF8C88C0
Copy CRC BF8C88C0
Accurately ripped (confidence 2) [A2676065] (AR v1)
Copy OK
Track 2
Filename D:\Encoding\EAC\02 Deep Water.wav
Peak level 100.0 %
Extraction speed 2.1 X
Track quality 100.0 %
Test CRC 8DE97AA3
Copy CRC 8DE97AA3
Accurately ripped (confidence 2) [CDDCD74F] (AR v1)
Copy OK
Track 3
Filename D:\Encoding\EAC\03 Solo Singers.wav
Peak level 53.7 %
Extraction speed 2.5 X
Track quality 100.0 %
Test CRC 80847557
Copy CRC 80847557
Accurately ripped (confidence 2) [7D411DF5] (AR v1)
Copy OK
All tracks accurately ripped
No errors occurred
End of status report
---- CUETools DB Plugin V2.1.3
[CTDB TOCID: aozVypGMmi_OzSCQOoEpC6mePsU-] found, Submit result: already submitted
[339835fe] (1/1) Accurately ripped
==== Log checksum 55F35DD1293CD74195065C49B686706BC6D91B5D41858CFE0D374A2A0A339D87 ====

Содержание индексной карты (.CUE)

REM GENRE Environmental, Relaxation
REM DATE 1995
REM DISCID 210E2703
REM COMMENT "ExactAudioCopy v1.0b3"
CATALOG 0000000000000
PERFORMER "Echoes Of Nature"
TITLE "Beluga Whales"
FILE "01. Beluga Party.flac" WAVE
TRACK 01 AUDIO
TITLE "Beluga Party"
PERFORMER "Echoes Of Nature"
INDEX 01 00:00:00
FILE "02. Deep Water.flac" WAVE
TRACK 02 AUDIO
TITLE "Deep Water"
PERFORMER "Echoes Of Nature"
INDEX 01 00:00:00
FILE "03. Solo Singers.flac" WAVE
TRACK 03 AUDIO
TITLE "Solo Singers"
PERFORMER "Echoes Of Nature"
INDEX 01 00:00:00

Лог проверки качества

AUDIOCHECKER v2.0 beta (build 457) - by Dester - opdester@freemail.hu
~~~~~~~~~~~~~~~~~~~~~~~~~~~~~~~~~~
-=== DO NOT EDIT THIS FILE! ===-
Path: ...\Echoes Of Nature - 1995 - Beluga Whales {LaserLight 12 512}
1 -=- 01. Beluga Party.flac -=- CDDA (100%)
2 -=- 02. Deep Water.flac -=- CDDA (100%)
3 -=- 03. Solo Singers.flac -=- CDDA (100%)
Summary 100,00% CDDA
188126628

CUETools log

[CUETools log; Date: 03.02.2013 16:40:37; Version: 2.0.9]
[CTDB TOCID: aozVypGMmi_OzSCQOoEpC6mePsU-] found.
[ CTDBID ] Status
[339835fe] (1/1) Accurately ripped
[AccurateRip ID: 0008c82a-001d0cd2-210e2703] found.
Track [ CRC ] Status
01 [a2676065] (2/2) Accurately ripped
02 [cddcd74f] (2/2) Accurately ripped
03 [7d411df5] (2/2) Accurately ripped
Track Peak [ CRC32 ] [W/O NULL] [ LOG ]
-- 100,0 [2CF7D095] [175FC023]
01 99,4 [BF8C88C0] [1B620E1B] CRC32
02 100,0 [8DE97AA3] [8F559E52] CRC32
03 53,7 [80847557] [4664E9AF] CRC32
[cybertorrent.ru].t12598.torrent 
Торрент: Зарегистрирован [ 2018-02-20 07:45 ] · B72340CF5559ABAE37BB5D042C8C7517FD640ED0

Скачать .torrent

Скачать

15 KB

Статус: проверено
Скачан: 0 раз
Размер: 358 MB
Профиль [ЛС]
Показать сообщения:    

Текущее время: 21-Июл 17:29

Часовой пояс: UTC ± 0



Вы не можете начинать темы
Вы не можете отвечать на сообщения
Вы не можете редактировать свои сообщения
Вы не можете удалять свои сообщения
Вы не можете голосовать в опросах
Вы не можете прикреплять файлы к сообщениям
Вы можете скачивать файлы