Статистика раздачи
Размер:  1,09 GB   |    Зарегистрирован:  3 месяца 11 дней   |    Скачан:  0 раз

Полного источника не было: Никогда

 
   
 
 

lopster ®

Пол:
Не указан
Стаж:
3 месяца 11 дней
Сообщений:
612

Ключ
Год выпуска: 1992
Жанр: Драма, детектив
Продолжительность: 00:55:44
Режиссер: Павел Чухрай
В ролях:
* Александр Калягин — Адвокат Симон Сидорович
* Анатолий Ромашин — Помощник следователя Василий Федорович
* Марьяна Полтева — Дочь адвоката
* Вениамин Смехов — Господин Браун
* Анатолий Кузнецов — Следователь Яценко
* Алексей Серебряков
* Виктор Сухоруков
* Семен Фурман
* Михаил Трухин
* Татьяна Захарова
Описание: Зима 1917 года, канун Февральской революции.
Санкт-Петербург - время и место действия известного романа русского эмигранта Марка Алданова.
Острый детективный сюжет, адаптированный для телевидения, уплотнен в часовое зрелище,
персонажи которого - следователи, политическая полиция, богатые негоцианты, их жены и дочери,
столичные журналисты, банкиры и военные инженеры. Преддверие и предчувствие катастрофы...

Доп. информация: Полная версия.
(Сцена в ванной комнате с Марьяной Полтевой - здесь целая, без ножниц цензуры)
Релиз - Torrents.ru*
Другие мои раздачи
Качество: TVRip
Формат: AVI
Видео кодек: XviD
Аудио кодек: MP3
Видео: 720x540 (1.33:1), 25 fps, XviD MPEG-4 ~2646 kbps avg, 0.27 bit/pixe
Аудио: 44.100 kHz, MPEG Layer 3, 2 ch, ~128.00 kbps avg

MI

Код:Общее
Полное имя : C:\otkat\Видео\Ключ\Kluch.torrent.ru.avi
Формат : AVI
Формат/Информация : Audio Video Interleave
Размер файла : 1,09 Гбайт
Продолжительность : 55 м.
Общий поток : 2788 Кбит/сек
Видео
Идентификатор : 1
Формат : MPEG-4 Visual
Профиль формата : Advanced Simple@L5
Параметр BVOP формата : 1
Параметр QPel формата : Нет
Параметр GMC формата : Без точки перехода
Параметр матрицы формата : Default (H.263)
Режим смешивания : Сжатый битовый поток
Идентификатор кодека : XVID
Идентификатор кодека/Подсказка : XviD
Продолжительность : 55 м.
Битрейт : 2647 Кбит/сек
Ширина : 720 пикселей
Высота : 540 пикселей
Соотношение сторон : 4:3
Частота кадров : 25,000 кадров/сек
Цветовое пространство : YUV
Субдискретизация насыщенности : 4:2:0
Битовая глубина : 8 бит
Тип развёртки : Прогрессивная
Метод сжатия : С потерями
Бит/(Пиксели*Кадры) : 0.272
Размер потока : 1,03 Гбайт (95%)
Библиотека кодирования : XviD 1.2.1 (UTC 2008-12-04)
Аудио
Идентификатор : 0
Формат : MPEG Audio
Версия формата : Version 1
Профиль формата : Layer 3
Режим : Joint stereo
Расширение режима : MS Stereo
Идентификатор кодека : 55
Идентификатор кодека/Подсказка : MP3
Продолжительность : 55 м.
Вид битрейта : Постоянный
Битрейт : 128 Кбит/сек
Каналы : 2 канала
Частота : 44,1 КГц
Метод сжатия : С потерями
Размер потока : 51,0 Мбайт (5%)
Выравнивание : Разделение по промежуткам
Продолжительность промежутка : 40 мс. (1,00 видеокадр)

Скриншоты



[cybertorrent.ru].t126.torrent 
Торрент: Зарегистрирован [ 2018-02-15 13:57 ] · 09B114EE24C34DCC3F87C2C77EA3B348F069C5FA

Скачать .torrent

Скачать

11 KB

Статус: проверено
Скачан: 0 раз
Размер: 1,09 GB
Профиль [ЛС]
Показать сообщения:    

Текущее время: 27-Май 01:32

Часовой пояс: UTC ± 0



Вы не можете начинать темы
Вы не можете отвечать на сообщения
Вы не можете редактировать свои сообщения
Вы не можете удалять свои сообщения
Вы не можете голосовать в опросах
Вы не можете прикреплять файлы к сообщениям
Вы можете скачивать файлы