Статистика раздачи
Размер:  4,27 GB   |    Зарегистрирован:  6 месяцев 26 дней   |    Скачан:  0 раз

Полного источника не было: Никогда

   
 

Гость ®

Пол:
Не указан

Американская семейка / Modern Family
Год выпуска: 2018
Страна: США
Жанр: Мелодрама, комедия
Продолжительность: ~ 00:22:00
Перевод: Профессиональный (двухголосый закадровый)[Gears Media]
Режиссёр: Гейл Манкусо, Джеймс Алан Хенш
В ролях: Эд О’Нил, София Вергара, Тай Бурелл, Джули Боуэн, Джесси Тайлер Фергюсон, Эрик Стоунстрит, Рико Родригес, Нолан Гоулд, Сара Хайланд, Ариэль Уинтер и др.
Описание:
Джей Притчетт познакомился со сногсшибательной колумбийкой Глорией, когда она в бикини подавала ему коктейли на вечеринке, которую он устроил в день ухода его первой жены. Теперь Джей и Глория женаты, и Джей изо всех сил старается не отставать от молодой красотки-жены и её сына Мэни. В семье Клэр Данфи тоже не все гладко. Её муж Фил — просто замечательный, но он считает, что «свой в доску» для детей, чем их сильно смущает. А сын Джея, Митчелл, и его партнёр Камерон только что удочерили Лили, очаровательного младенца из Вьетнама.
Ссылка на предыдущие и альтернативные раздачи: http://cybertorrent.ru/forum/tracker.php?nm=Modern+Family
Сэмпл: http://multi-up.com/1210578
Качество: WEBRip
Формат: AVI
Видео: XviD, 720x400 at 23.976 fps, ~1500 kbps avg
Аудио1: Russian, MP3, 48 kHz, 2 ch, 128 kbps
Аудио2: English, MP3, 48 kHz, 2 ch, 128 kbps
Субтитры: нет
Реклама: аудио (два раза, в начале и конце, по 12 сек.)

MediaInfo

Format : AVI
Format/Info : Audio Video Interleave
File size : 274 MiB
Duration : 21 min 32 s
Overall bit rate : 1 777 kb/s
Writing application : Lavf57.29.101
Video
ID : 0
Format : xvid
Codec ID : xvid
Duration : 21 min 32 s
Bit rate : 1 501 kb/s
Width : 720 pixels
Height : 400 pixels
Display aspect ratio : 16:9
Frame rate : 23.976 (24000/1001) FPS
Scan type : Progressive
Bits/(Pixel*Frame) : 0.217
Stream size : 231 MiB (84%)
Audio #1
ID : 1
Format : MPEG Audio
Format version : Version 1
Format profile : Layer 3
Format settings : Joint stereo / MS Stereo
Codec ID : 55
Codec ID/Hint : MP3
Duration : 21 min 32 s
Bit rate mode : Constant
Bit rate : 128 kb/s
Channel(s) : 2 channels
Sampling rate : 48.0 kHz
Compression mode : Lossy
Stream size : 19.7 MiB (7%)
Alignment : Aligned on interleaves
Interleave, duration : 24 ms (0.58 video frame)
Interleave, preload duratio : 24 ms
Title : Gears Media
Writing library : LAME3.99.5
Audio #2
ID : 2
Format : MPEG Audio
Format version : Version 1
Format profile : Layer 3
Format settings : Joint stereo / MS Stereo
Codec ID : 55
Codec ID/Hint : MP3
Duration : 21 min 32 s
Bit rate mode : Constant
Bit rate : 128 kb/s
Channel(s) : 2 channels
Sampling rate : 48.0 kHz
Compression mode : Lossy
Stream size : 19.7 MiB (7%)
Alignment : Aligned on interleaves
Interleave, duration : 24 ms (0.58 video frame)
Interleave, preload duratio : 24 ms
Writing library : LAME3.99.

Скриншоты

Внимание! Раздача ведётся путём добавления новых серий

Внимание! Раздача ведётся путём добавления новых серий; при каждом добавлении создаётся новый торрент. Чтобы начать докачку новой серии, пользователям необходимо сделать следующее:
(1) остановить скачивание,
(2) удалить старый торрент у себя из клиента (старые серии удалять не надо),
(3) скачать новый торрент и запустить его у себя в клиенте вместо старого, при этом указать клиенту путь в старую папку куда и должно происходить скачивание новых серий.
Ваш клиент при этом должен произвести хеширование (проверку) старой папки (если не производит сам - помогите ему сделать это), и будет докачивать только те серии которых у вас ещё нет. Старые серии при этом не удаляются, а продолжают раздаваться!
Eсли вы уже удалили старые серии, то предотвратить повторную закачку старых серий можно, отжав галочку в соответствующих местах при запуске нового торрента. По возможности, желательно не удалять старые серии как можно дольше чтобы релизёр не столько продолжал раздавать старые серии, а смог сконцентрироваться на новых.
[cybertorrent.ru].t1268.torrent 
Торрент: Зарегистрирован [ 2019-03-21 15:52 ] · 9A8C9A3522DB009257C05D195872138152BABD3A

Скачать .torrent

Скачать

23 KB

Статус: проверено
Скачан: 0 раз
Размер: 4,27 GB
terms.php
Показать сообщения:    

Текущее время: 17-Окт 08:09

Часовой пояс: UTC ± 0



Вы не можете начинать темы
Вы не можете отвечать на сообщения
Вы не можете редактировать свои сообщения
Вы не можете удалять свои сообщения
Вы не можете голосовать в опросах
Вы не можете прикреплять файлы к сообщениям
Вы можете скачивать файлы