BitTorrent клиенты



Snap - The Best [1990-2003, Pop, DVD5]

Ответить на тему
Статистика раздачи
Размер:  4,22 GB   |    Зарегистрирован:  11 месяцев   |    Скачан:  0 раз

Полного источника не было: Никогда

 
   
 
 
Автор Сообщение

GEEP ®

Пол: Не указан

Стаж: 1 год

Сообщений: 866

Создавать темы 22-Фев-2018 16:16

[Цитировать]

Snap - The Best [Клипы]
Год выпуска: 1990-2003
Страна: Germany
Жанр: Pop
Продолжительность: 01:05:45
История:
Создав группу SNAP!, франкфуртские продюсеры Лука Анзилотти и Майкл Мюнцинг вписали новую главу в
мировую историю стиля «поп-дэнс» .
Мировой мега-хит “The Power” открыл наступление SNAP!, которое захватывающим дух темпом успешно
пошло на всех континентах. С тех пор этот проект относится к самым успешным попыткам экспорта
немецкой музыки. Во Франкфурте, Нью-Йорке, Лондоне, Хельсинки и Сингапуре SNAP! ассоциируется с ночами,
проведёнными на дискотеках, и чарующей смесью из дэнса, соула, ритм-энд-блюза и рэпа. SNAP! стала
настоящей хит-машиной и собрала многочисленные награды.
В рамках договора с лэйблом Logic Records были выпущены хиты “OOOps Up”, “Cult of SNAP!” и “Mary Had A Little Boy”,
которые поднялись к вершинам европейских чартов. Дебютный альбом по числу продаж (7 миллионов) относится
к самым продаваемым альбомам в стиле «дэнс» во всём мире. SNAP! стал своеобразным заклинанием танцполов.
“Rhythm Is A Dancer” – гимн танцполов – был самым продаваемым синглом 1992 года в Германии и Великобритании.
В Германии сингл больше 10 недель продержался на вершине хит-парадов и в течение 39 недель не покидал
американский чарт Billboard.
Благодаря синглам “Rhythm is a Dancer” и “Exterminate” из второго альбома, “The Madman s Return” был признан
«платиновым» и «золотым» во всём мире – даже в Южной Африке, Малазии, Индии и Сингапуре! Из третьего
альбома “Welcome to Tomorrow”, хитами стали “The First The Last Eternity” и “Welcome to Tomorrow”.
Описание:
01. The Power
02. Ooops Up
03. Cult Of Snap!
04. Mary Had A Little Boy
05. Colour Of Love
06. Rhythm Is A Dancer
07. Exterminate
08. See The Light
09. Welcome To Tomorrow
10. Eternity
11. World In My Hands
12. Rame
13. The Power '1996
14. Gimme A Thrill
15. See The Light '2002
16. Rhythm Is A Dancer '2003
17. The Power [Of Bhangra]

Скриншоты

Информация

Данный релиз не сжатие - удалены "LIVE" и "EXTRAS".
Клипы остались в том же - оригинальном качестве (не сжатые).
Обложка переделана под данный релиз.
Качество: DVD5
Формат: DVD Video
Видео кодек: MPEG2
Аудио кодек: Linear PCM
Видео: Resolution: 720x576, FrameRate: 25.00, BitRate: 6000 Kbps, Codec: MPEG 2
Аудио: Dolby Stereo, Sample Rate: 48000 Hz, Channels: 2, BitRate: 1536 Kbps, Codec: LPCM

MediaInfo

Формат : MPEG-PS
Размер файла : 1024 Мбайт
Продолжительность : 3 м. 2 с.
Режим общего битрейта : Переменный
Общий поток : 47,2 Мбит/сек
Видео
Идентификатор : 224 (0xE0)
Формат : MPEG Video
Версия формата : Version 2
Профиль формата : Main@Main
Параметр BVOP формата : Да
Параметр матрицы формата : Выборочная
Параметр GOP формата : M=3, N=12
Структура изображения : Frame
Продолжительность : 3 м. 2 с.
Вид битрейта : Переменный
Битрейт : 44,7 Мбит/сек
Максимальный битрейт : 6000 Кбит/сек
Ширина : 720 пикселей
Высота : 576 пикселей
Соотношение сторон : 4:3
Частота кадров : 25,000 кадров/сек
Стандарт вещания : PAL
Цветовое пространство : YUV
Субдискретизация насыщенности : 4:2:0
Битовая глубина : 8 бит
Тип развёртки : Чересстрочная
Порядок развёртки : Верхнее поле первое
Метод сжатия : С потерями
Бит/(Пиксели*Кадры) : 4.312
Временной код первого кадра : 09:59:59:10
Оригинал временного кода : Group of pictures header
GOP, открыто/закрыто : Закрыто
Размер потока : 970 Мбайт (95%)
Аудио
Идентификатор : 189 (0xBD)-160 (0xA0)
Формат : PCM
Параметр Endianness формата : Big
Параметр Sign формата : Signed
Режим смешивания : DVD-Video
Продолжительность : 3 м. 1 с.
Вид битрейта : Постоянный
Битрейт : 1536 Кбит/сек
Каналы : 2 канала
Частота : 48,0 КГц
Битовая глубина : 16 бит
Размер потока : 33,3 Мбайт (3%)
Меню

Дополнительно

ВСЕ МОИ РАЗДАЧИ
[cybertorrent.ru].t12680.torrent 
Торрент: Зарегистрирован [ 2018-02-22 16:20 ] · 24488B7A2AE110609A74CCF3DBEBA5A4593D8204

Скачать .torrent

Скачать

22 KB

Статус: проверено
Скачан: 0 раз
Размер: 4,22 GB
terms.php
[Профиль] [ЛС]
Показать сообщения:    
Ответить на тему

Текущее время: 22-Фев 03:50

Часовой пояс: UTC + 3



Вы не можете начинать темы
Вы не можете отвечать на сообщения
Вы не можете редактировать свои сообщения
Вы не можете удалять свои сообщения
Вы не можете голосовать в опросах
Вы не можете прикреплять файлы к сообщениям
Вы можете скачивать файлы