Статистика раздачи
Размер:  4,43 GB   |    Зарегистрирован:  7 месяцев   |    Скачан:  0 раз

Полного источника не было: Никогда

   
 

Гость ®

Пол:
Не указан

Стальная звезда | Tin Star- Год выпуска: 2019
Страна: Великобритания, Канада, США
Жанр: Драма, криминал, триллер
Продолжительность: ~ 00:42:00-Перевод: Профессиональный (многоголосый закадровый) | SDI Media-Режиссёр: Жиль Банньер, Марк Йобст, Грант Харви, Роуэн Жоффе-В ролях: Тим Рот, Кристина Хендрикс, Кристофер Хейердал, Оливер Куперсмит, Линда Бойд, Майк Ковач, Майлс Питерман, Сара Подемски и др.-Описание: История о том, как бывший полицейский детектив Джим Уорт из Лондона вместе с семьёй перебрался в городок у Скалистых гор, чтобы возглавить местную полицию. После открытия неподалёку нефтеочистительного завода городок наводнили мигранты, спровоцировав рост преступности, проституции и наркоторговли. Попытки Джима восстановить порядок превратили его жизнь и жизнь его близких в ад, от которого некуда скрыться.- -[box=#aed8ff,#003465]Ссылка на предыдущие и альтернативные раздачи[/box]-Исходник: WEB-DL 1080p EniaHD
Качество: WEB-DLRip
Формат: AVI
Видео: XviD, 704x352 (2,000), 25,000 кадров/сек, ~1500 Кбит/сек
Аудио Rus: MP3, 48 kHz, 2 ch, 128 Кбит/сек | SDI Media
Аудио Eng: MP3, 48 kHz, 2 ch, 128 Кбит/сек
Субтитры: Отсутствуют
Реклама: Отсутствует-

Список серий

01. Готика Прерий / Prairie Gothic
02. Что-то злое к нам спешит / Something Wicked This Way Comes
03. Не сопротивляйтесь злу / Resist Not Evil
04. Джек и кокаин / Jack and Coke
05. Последствия / Consequences
06. Посредник придет / The Bagman Cometh
07. Метанойя / Metanoia
08. Скрытый пожар | Subterranean Fire
-

MediaInfo

Общее
Полное имя : E:\Tin Star (Season 2) WEB-DLRip\Tin.Star.S02E01.WEB-DLRip.RGzsRutracker.[Wentworth_Miller].avi
Формат : AVI
Формат/Информация : Audio Video Interleave
Размер файла : 533 Мбайт
Продолжительность : 42 м. 7 с.
Общий поток : 1770 Кбит/сек
Название фильма : Tin.Star.S02E01.WEB-DLRip.RGzsRutracker.[Wentworth_Miller]
Режиссёр : Wentworth_Miller
Жанр : Action/Drama/Thriller
Программа кодирования : VirtualDubMod 1.5.10.3 | www.virtualdub-fr.org || (build 2550/release)
Формат оригинала/Имя : TV-Serie
Видео
Идентификатор : 0
Формат : MPEG-4 Visual
Профиль формата : Advanced Simple@L5
Настройки формата : BVOP2
Параметр BVOP формата : 2
Параметр QPel формата : Нет
Параметр GMC формата : Без точки перехода
Параметр матрицы формата : Default (MPEG)
Идентификатор кодека : XVID
Идентификатор кодека/Подсказка : XviD
Продолжительность : 42 м. 7 с.
Битрейт : 1500 Кбит/сек
Ширина : 704 пикселя
Высота : 352 пикселя
Соотношение сторон : 2,000
Частота кадров : 25,000 кадров/сек
Цветовое пространство : YUV
Субдискретизация насыщенности : 4:2:0
Битовая глубина : 8 бит
Тип развёртки : Прогрессивная
Метод сжатия : С потерями
Бит/(Пиксели*Кадры) : 0.242
Размер потока : 452 Мбайт (85%)
Библиотека кодирования : XviD 61
Аудио #1
Идентификатор : 1
Формат : MPEG Audio
Версия формата : Version 1
Профиль формата : Layer 3
Настройки формата : Joint stereo / MS Stereo
Идентификатор кодека : 55
Идентификатор кодека/Подсказка : MP3
Продолжительность : 42 м. 7 с.
Вид битрейта : Постоянный
Битрейт : 128 Кбит/сек
Каналы : 2 канала
Частота : 48,0 КГц
Метод сжатия : С потерями
Размер потока : 38,6 Мбайт (7%)
Выравнивание : Соединение по промежуткам
Продолжительность промежутка : 40 мс. (1,00 видеокадр)
Время предзагрузки промежутка : 504 мс.
Библиотека кодирования : LAME3.97
Аудио #2
Идентификатор : 2
Формат : MPEG Audio
Версия формата : Version 1
Профиль формата : Layer 3
Настройки формата : Joint stereo / MS Stereo
Идентификатор кодека : 55
Идентификатор кодека/Подсказка : MP3
Продолжительность : 42 м. 7 с.
Вид битрейта : Постоянный
Битрейт : 128 Кбит/сек
Каналы : 2 канала
Частота : 48,0 КГц
Метод сжатия : С потерями
Размер потока : 38,6 Мбайт (7%)
Выравнивание : Соединение по промежуткам
Продолжительность промежутка : 40 мс. (1,00 видеокадр)
Время предзагрузки промежутка : 504 мс.
Библиотека кодирования : LAME3.97
-

Скриншоты

-

Внимание! Раздача ведётся путём добавления новых серий

Внимание! Раздача ведётся путём добавления новых серий; при каждом добавлении создаётся новый торрент. Чтобы начать докачку новой серии, пользователям необходимо сделать следующее:
(1) остановить скачивание,
(2) удалить старый торрент у себя из клиента (старые серии удалять не надо),
(3) скачать новый торрент и запустить его у себя в клиенте вместо старого, при этом указать клиенту путь в старую папку куда и должно происходить скачивание новых серий.
Ваш клиент при этом должен произвести хеширование (проверку) старой папки (если не производит сам - помогите ему сделать это), и будет докачивать только те серии которых у вас ещё нет. Старые серии при этом не удаляются, а продолжают раздаваться!
Eсли вы уже удалили старые серии, то предотвратить повторную закачку старых серий можно, отжав галочку в соответствующих местах при запуске нового торрента. По возможности, желательно не удалять старые серии как можно дольше чтобы релизёр не столько продолжал раздавать старые серии, а смог сконцентрироваться на новых.
[cybertorrent.ru].t1278.torrent 
Торрент: Зарегистрирован [ 2019-03-21 15:52 ] · EEFF26A56F778D674EC40190F6C0089B3147159A

Скачать .torrent

Скачать

23 KB

Статус: проверено
Скачан: 0 раз
Размер: 4,43 GB
terms.php
Показать сообщения:    

Текущее время: 22-Окт 08:54

Часовой пояс: UTC ± 0



Вы не можете начинать темы
Вы не можете отвечать на сообщения
Вы не можете редактировать свои сообщения
Вы не можете удалять свои сообщения
Вы не можете голосовать в опросах
Вы не можете прикреплять файлы к сообщениям
Вы можете скачивать файлы