Статистика раздачи
Размер:  1,37 GB   |    Зарегистрирован:  3 месяца 11 дней   |    Скачан:  0 раз

Полного источника не было: Никогда

Личеров:  2  [  0 KB/s  ]  
 
   
 
 

lopster ®

Пол:
Не указан
Стаж:
3 месяца 11 дней
Сообщений:
612

Придел ангела (2009)
Год выпуска: 2009
Жанр: Драма
Продолжительность: 01:32:21
Режиссер: Николай Дрейден
В ролях: Алексей Морозов, Александр Баргман, Артур Ваха, Виталий Коваленко, Дмитрий Лысенков, Владимир Матвеев, Эмилия Спивак, Хельга Филиппова, Витас Эйзенах
Описание: Фильм из истории советско-финских отношений. Картина повествует о провалившемся покушении на генерала Карла Густава Эмиля Маннергейма. 1924 год. Советская Россия. Молодого комиссара Максима Прошина (Алексей Морозов) Советсткая власть отправляет на остров Коневец в монастырь с секретным заданием.Максим под видом послушника должен убрать высокопоставленного чиновника Финляндии - и его простая, казалось бы, миссия, превращает в путь личного духовного покаяния за совершенные ошибки.
Доп. информация: Релиз:
Все раздачи фильма: Придел ангела
СЭМПЛ
Качество: SATRip
Формат: AVI
Видео кодек: XviD
Аудио кодек: MP3
Видео: 720x464 (1.55:1), 25 fps, XviD build 50 ~1920 kbps avg, 0.23 bit/pixel
Аудио: 48 kHz, MPEG Layer 3, 2 ch, ~192.00 kbps avg

MI

Код:Общее
Полное имя : C:\otkat\Видео\Придел ангела\Pridel.angela.2009.XviD.SATRip.KinozalSat.net.avi
Формат : AVI
Формат/Информация : Audio Video Interleave
Размер файла : 1,37 Гбайт
Продолжительность : 1 ч. 32 м.
Общий поток : 2119 Кбит/сек
Программа кодирования : VirtualDubMod 1.5.4.1 (build 2178/release)
Библиотека кодирования : VirtualDubMod build 2178/release
Видео
Идентификатор : 0
Формат : MPEG-4 Visual
Профиль формата : Advanced Simple@L5
Параметр BVOP формата : 1
Параметр QPel формата : Нет
Параметр GMC формата : Без точки перехода
Параметр матрицы формата : Выборочная
Идентификатор кодека : XVID
Идентификатор кодека/Подсказка : XviD
Продолжительность : 1 ч. 32 м.
Битрейт : 1920 Кбит/сек
Ширина : 720 пикселей
Высота : 464 пикселя
Соотношение сторон : 16:10
Частота кадров : 25,000 кадров/сек
Цветовое пространство : YUV
Субдискретизация насыщенности : 4:2:0
Битовая глубина : 8 бит
Тип развёртки : Прогрессивная
Метод сжатия : С потерями
Бит/(Пиксели*Кадры) : 0.230
Размер потока : 1,24 Гбайт (91%)
Библиотека кодирования : XviD 1.2.1 (UTC 2008-12-04)
Аудио
Идентификатор : 1
Формат : MPEG Audio
Версия формата : Version 1
Профиль формата : Layer 3
Режим : Joint stereo
Расширение режима : MS Stereo
Идентификатор кодека : 55
Идентификатор кодека/Подсказка : MP3
Продолжительность : 1 ч. 32 м.
Вид битрейта : Постоянный
Битрейт : 192 Кбит/сек
Каналы : 2 канала
Частота : 48,0 КГц
Метод сжатия : С потерями
Размер потока : 127 Мбайт (9%)
Выравнивание : Соединение по промежуткам
Продолжительность промежутка : 80 мс. (2,00 видеокадра)
Время предзагрузки промежутка : 504 мс.
Библиотека кодирования : LAME3.97
Настройки программы : -m j -V 4 -q 2 -lowpass 18.6 -b 192

Скриншоты


[cybertorrent.ru].t128.torrent 
Торрент: Зарегистрирован [ 2018-02-15 13:57 ] · 9375DE2ADB2FCB8498D50F2171FCCC963760CA53

Скачать .torrent

Скачать

14 KB

Статус: проверено
Скачан: 0 раз
Размер: 1,37 GB
Профиль [ЛС]
Показать сообщения:    

Текущее время: 26-Май 15:36

Часовой пояс: UTC ± 0



Вы не можете начинать темы
Вы не можете отвечать на сообщения
Вы не можете редактировать свои сообщения
Вы не можете удалять свои сообщения
Вы не можете голосовать в опросах
Вы не можете прикреплять файлы к сообщениям
Вы можете скачивать файлы