Статистика раздачи
Размер:  14,24 GB   |    Зарегистрирован:  2 месяца 17 дней   |    Скачан:  0 раз
DL-List: Нет

Полного источника не было: Никогда

 
     
 
 

MAGNAT ®

Пол:
Мужской
Стаж:
1 год 2 месяца
Сообщений:
7925

-Видоизмененный углерод | Altered Carbon- Год выпуска: 2020
Страна: США
Жанр: Фантастика, детектив, фильм-нуар, боевик
Продолжительность: ~ 00:45:00-Перевод: Профессиональный (многоголосый закадровый) | HDRezka Studio-Режиссёр: Ута Бризвитц, Питер Хор, Ник Харран, Алекс Грейвз, Мигель Сапочник, Энди Годдард-В ролях: Антонио Марциале, Юэль Киннаман, Крис Коннер, Рене Голдсберри, Джеймс Пьюрфой, Марта Игареда, Дичен Лакмэн, Ато Эссандо, Кристин Леман, Треу Трэн, Энтони Маки-Описание: Действие сериала разворачивается в далёком будущем, где человечество научилось избегать физической смерти, записывая сознание и воспоминания отдельного человека на специальные носители, после чего перенося личность в новое тело.
В центре сюжета оказывается Такеши Ковач – элитный наёмник, который спустя 250 лет после своей гибели получает новое тело по инициативе Лоренса Бэнкрофта – одного из самых состоятельных людей на планете. Физическое тело Бэнкрофта погибло, но его личность была восстановлена из автоматического резервного копирования, которое было сделано за несколько часов до смерти, поэтому сам пострадавший совершенно не помнит о том, как он умер. Несмотря на утверждения полиции, что причиной его смерти является самоубийство, Бэнкрофт абсолютно уверен, что его убили, поэтому он поручает нашему герою в кратчайшие сроки выяснить истинную причину.-Качество: WEB-DL 1080p
Формат: MKV
Видео: HDR, HEVC, 1920x1080 (16:9), ~ 4140 Кбит/сек, 23.976 кадров/сек
Аудио Rus: AC3, 48,0 kHz, 2 ch, 192 Кбит/сек | HDRezka Studio
Аудио Eng: AC3, 48 kHz, 3/2 (L,C,R,l,r) + LFE ch, 640 Кбит/сек
Субтитры: Русские (Forced, Full [Netflix]), английские (SDH), немецкие, французские, итальянские, испанские, голландские, португальские
Реклама: Отсутствует-

Список серий

01. Леди-призрак / Phantom Lady
02. Отсроченный платёж / Payment Deferred
03. Аллея кошмаров / Nightmare Alley
04. Тень сомнения / Shadow of a Doubt
05. Ночной кошмар / I Wake up Screaming
06. Похорони меня мёртвой / Bury Me Dead
07. Рискованный эксперимент / Experiment Perilous
08. Сломленные ангелы / Broken Angels
-

MediaInfo

Общее
Уникальный идентификатор : 177064010625528621971891831470062728914 (0x853549BB4410910298B0B6ED1F0676D2)
Полное имя : Видоизмененный углерод. 2 сезон. 2020. EniaHD (HDR, HEVC, WEB-DL 1080p)\Altered.Carbon.s02e01. Призрачная женщина.mkv
Формат : Matroska
Версия формата : Version 2
Размер файла : 1,60 Гбайт
Продолжительность : 45 м. 7 с.
Общий поток : 5081 Кбит/сек
Название фильма : Phantom Lady
Дата кодирования : UTC 2020-02-28 14:15:18
Программа кодирования : mkvmerge v6.9.1 ('Blue Panther') 32bit built on Apr 18 2014 18:15:44
Библиотека кодирования : libebml v1.3.0 + libmatroska v1.4.1
Видео
Идентификатор : 1
Формат : HEVC
Формат/Информация : High Efficiency Video Coding
Коммерческое название : HDR10
Профиль формата : Main 10@L4@Main
Идентификатор кодека : V_MPEGH/ISO/HEVC
Продолжительность : 45 м. 7 с.
Битрейт : 4148 Кбит/сек
Ширина : 1920 пикселей
Высота : 1080 пикселей
Соотношение сторон : 16:9
Режим частоты кадров : Постоянный
Частота кадров : 23,976 (24000/1001) кадра/сек
Цветовое пространство : YUV
Субдискретизация насыщенности : 4:2:0 (Type 2)
Битовая глубина : 10 бит
Бит/(Пиксели*Кадры) : 0.083
Размер потока : 1,31 Гбайт (82%)
Язык : English
Default : Да
Forced : Нет
Цветовой диапазон : Limited
Основные цвета : BT.2020
Характеристики трансфера : PQ
Коэффициенты матрицы : BT.2020 non-constant
MasteringDisplay_ColorPrimaries : Display P3
MasteringDisplay_Luminance : min: 0.0001 cd/m2, max: 1000 cd/m2
MaxCLL : 1127 cd/m2
MaxFALL : 547 cd/m2
Аудио #1
Идентификатор : 2
Формат : AC-3
Формат/Информация : Audio Coding 3
Коммерческое название : Dolby Digital
Идентификатор кодека : A_AC3
Продолжительность : 45 м. 7 с.
Вид битрейта : Постоянный
Битрейт : 192 Кбит/сек
Каналы : 2 канала
Channel layout : L R
Частота : 48,0 КГц
Частота кадров : 31,250 кадров/сек (1536 SPF)
Битовая глубина : 16 бит
Метод сжатия : С потерями
Размер потока : 62,0 Мбайт (4%)
Заголовок : HDRezka Studio
Язык : Russian
ServiceKind/String : Complete Main
Default : Да
Forced : Нет
Аудио #2
Идентификатор : 3
Формат : AC-3
Формат/Информация : Audio Coding 3
Коммерческое название : Dolby Digital
Идентификатор кодека : A_AC3
Продолжительность : 45 м. 7 с.
Вид битрейта : Постоянный
Битрейт : 640 Кбит/сек
Каналы : 6 каналов
Channel layout : L R C LFE Ls Rs
Частота : 48,0 КГц
Частота кадров : 31,250 кадров/сек (1536 SPF)
Битовая глубина : 16 бит
Метод сжатия : С потерями
Размер потока : 207 Мбайт (13%)
Язык : English
ServiceKind/String : Complete Main
Default : Нет
Forced : Нет
Текст #1
Идентификатор : 4
Формат : UTF-8
Идентификатор кодека : S_TEXT/UTF8
Идентификатор кодека/Информация : UTF-8 Plain Text
Заголовок : Forced
Язык : Russian
Default : Да
Forced : Да
Текст #2
Идентификатор : 5
Формат : UTF-8
Идентификатор кодека : S_TEXT/UTF8
Идентификатор кодека/Информация : UTF-8 Plain Text
Язык : Russian
Default : Нет
Forced : Нет
Текст #3
Идентификатор : 6
Формат : UTF-8
Идентификатор кодека : S_TEXT/UTF8
Идентификатор кодека/Информация : UTF-8 Plain Text
Заголовок : SDH
Язык : English
Default : Нет
Forced : Нет
Текст #4
Идентификатор : 7
Формат : UTF-8
Идентификатор кодека : S_TEXT/UTF8
Идентификатор кодека/Информация : UTF-8 Plain Text
Язык : German
Default : Нет
Forced : Нет
Текст #5
Идентификатор : 8
Формат : UTF-8
Идентификатор кодека : S_TEXT/UTF8
Идентификатор кодека/Информация : UTF-8 Plain Text
Язык : French
Default : Нет
Forced : Нет
Текст #6
Идентификатор : 9
Формат : UTF-8
Идентификатор кодека : S_TEXT/UTF8
Идентификатор кодека/Информация : UTF-8 Plain Text
Язык : Italian
Default : Нет
Forced : Нет
Текст #7
Идентификатор : 10
Формат : UTF-8
Идентификатор кодека : S_TEXT/UTF8
Идентификатор кодека/Информация : UTF-8 Plain Text
Язык : Spanish
Default : Нет
Forced : Нет
Текст #8
Идентификатор : 11
Формат : UTF-8
Идентификатор кодека : S_TEXT/UTF8
Идентификатор кодека/Информация : UTF-8 Plain Text
Язык : Dutch
Default : Нет
Forced : Нет
Текст #9
Идентификатор : 12
Формат : UTF-8
Идентификатор кодека : S_TEXT/UTF8
Идентификатор кодека/Информация : UTF-8 Plain Text
Язык : Portuguese
Default : Нет
Forced : Нет
Меню
00:00:06.235 : en:Intro start
00:01:46.484 : en:Intro end
-

Скриншоты

[cybertorrent.ru].t12899.torrent 
Торрент: Зарегистрирован [ 2020-03-15 12:24 ] · 001C6BB961C67776C43E816F06215B2CDC2A2417

Скачать .torrent

Скачать

72 KB

Статус: проверено
Скачан: 0 раз
Размер: 14,24 GB  ·  Тип торрента
terms.php
Профиль [ЛС]
Показать сообщения:    

Текущее время: 01-Июн 15:47

Часовой пояс: UTC ± 0



Вы не можете начинать темы
Вы не можете отвечать на сообщения
Вы не можете редактировать свои сообщения
Вы не можете удалять свои сообщения
Вы не можете голосовать в опросах
Вы не можете прикреплять файлы к сообщениям
Вы можете скачивать файлы