Статистика раздачи
Размер:  1,37 GB   |    Зарегистрирован:  3 месяца 11 дней   |    Скачан:  0 раз

Полного источника не было: Никогда

 
   
 
 

lopster ®

Пол:
Не указан
Стаж:
3 месяца 11 дней
Сообщений:
612

Наследники Год выпуска: 2008
Жанр: Драма
Продолжительность: 01:27:36
Режиссер: Константин Одегов
В ролях: Павел Юрченко, Екатерина Редникова, Денис Карасев, Владимир Толоконников, Леонид Куравлев, Александр Голубков, Юлия Галкина, Александр Баширов, Елена Самохина, Леонид Окунев, Анатолий Бузинский, Алексей Шлямин, Амаду Мамадаков
Описание: В таежном сибирском поселке проживает обыкновенная семья, каких тысячи. Отец – буровик, мать – медсестра. Их сын успешно учится в начальной школе. Каждое лето они ездят к бабушке в Крым. Вся эта идиллия рушится из-за неприятностей на работе у отца. Он начинает пить и втягивает в это и свою жену. Подросток остается без родительского надзора. Его поставщик, вор Мишка, однажды передает ему старинную пуговицу, и не просто пуговицу - а пуговицу из Ипатьевского дома, с мундира убиенного цесаревича Алексея. И эта пуговица оказывается для Тимофея Наследием - которое нужно нести, но которое его спасает. Спасает от судьбы того же вора Мишки, от судьбы собственных спившихся родителей…
Доп. информация: Релиз:
СЭМПЛ
Все раздачи фильма: Наследники
Качество: SATRip
Формат: AVI
Видео кодек: XviD
Аудио кодек: MP3
Видео: 720x400 (1.80:1), 25 fps, XviD build 50 ~1971 kbps avg, 0.27 bit/pixel
Аудио: 48 kHz, MPEG Layer 3, 2 ch, ~256.00 kbps avg

MI

Код:Общее
Полное имя : C:\otkat\Видео\Наследники\Nasledniki.2009.XviD.SATRip.KinozalSat.net.avi
Формат : AVI
Формат/Информация : Audio Video Interleave
Размер файла : 1,37 Гбайт
Продолжительность : 1 ч. 27 м.
Общий поток : 2235 Кбит/сек
Программа кодирования : VirtualDubMod 1.5.4.1 (build 2178/release)
Библиотека кодирования : VirtualDubMod build 2178/release
Видео
Идентификатор : 0
Формат : MPEG-4 Visual
Профиль формата : Advanced Simple@L5
Параметр BVOP формата : 1
Параметр QPel формата : Нет
Параметр GMC формата : Без точки перехода
Параметр матрицы формата : Выборочная
Идентификатор кодека : XVID
Идентификатор кодека/Подсказка : XviD
Продолжительность : 1 ч. 27 м.
Битрейт : 1971 Кбит/сек
Ширина : 720 пикселей
Высота : 400 пикселей
Соотношение сторон : 16:9
Частота кадров : 25,000 кадров/сек
Цветовое пространство : YUV
Субдискретизация насыщенности : 4:2:0
Битовая глубина : 8 бит
Тип развёртки : Прогрессивная
Метод сжатия : С потерями
Бит/(Пиксели*Кадры) : 0.274
Размер потока : 1,21 Гбайт (88%)
Библиотека кодирования : XviD 1.2.1 (UTC 2008-12-04)
Аудио
Идентификатор : 1
Формат : MPEG Audio
Версия формата : Version 1
Профиль формата : Layer 3
Режим : Joint stereo
Идентификатор кодека : 55
Идентификатор кодека/Подсказка : MP3
Продолжительность : 1 ч. 27 м.
Вид битрейта : Постоянный
Битрейт : 256 Кбит/сек
Каналы : 2 канала
Частота : 48,0 КГц
Метод сжатия : С потерями
Размер потока : 160 Мбайт (11%)
Выравнивание : Соединение по промежуткам
Продолжительность промежутка : 80 мс. (2,00 видеокадра)
Время предзагрузки промежутка : 504 мс.
Библиотека кодирования : LAME3.97
Настройки программы : -m j -V 4 -q 2 -lowpass 19.7

Скриншоты


[cybertorrent.ru].t129.torrent 
Торрент: Зарегистрирован [ 2018-02-15 13:57 ] · 0D622997DF35503A64AD5C7E3B78687BBCE14DC1

Скачать .torrent

Скачать

14 KB

Статус: проверено
Скачан: 0 раз
Размер: 1,37 GB
Профиль [ЛС]
Показать сообщения:    

Текущее время: 26-Май 15:37

Часовой пояс: UTC ± 0



Вы не можете начинать темы
Вы не можете отвечать на сообщения
Вы не можете редактировать свои сообщения
Вы не можете удалять свои сообщения
Вы не можете голосовать в опросах
Вы не можете прикреплять файлы к сообщениям
Вы можете скачивать файлы