MAGNAT ®

Пол:
Мужской
Стаж:
1 год
Сообщений:
4482

Лютер / Luther- Год выпуска: 2011
Страна: Великобритания
Жанр: Детектив, криминал, триллер
Продолжительность: ~00:58:00-Перевод: Профессиональный (многоголосый закадровый)
TVShows-Режиссёр: Сэм Миллер, Джэми Пэйн, Брайан Кирк
В ролях: Идрис Эльба, Майкл Смайли, Рут Уилсон, Саския Ривз, Индира Варма, Никки Амука-Бёрд, Пол МакГанн, Уоррен Браун, Дермот Краули, Стивен Макинтош-Описание: История о выдающемся детективе Джоне Лютере, показывающая, что грязный полицейский и грязные методы — разные вещи. Успешность Лютера заключается в высокой раскрываемости преступлений, благодаря его нестандартным методам, которые он использует для поимки опаснейших преступников Лондона.
Качество: BDRip 1080p
Контейнер: MKV
Видео: MPEG-4 AVC, 1920x1080, 25 fps, ~8383 kbps
Аудио 1: Русский, AC3, 48 kHz, 2 ch, 384 kbps
Аудио 2: Английский, AAC, 48 kHz, 2 ch, 192 kbps
Субтитры: Английские-Реклама: Отсутствует-

MediaInfo

General
Unique ID : 198892294544659710928627375225654580501 (0x95A143384178D3000D8CA1D7C7459515)
Complete name : Luther.S02E01.1080p.TVShows.mkv
Format : Matroska
Format version : Version 4
File size : 3.60 GiB
Duration : 57 min 27 s
Overall bit rate : 8 963 kb/s
Encoded date : UTC 2020-02-05 10:00:19
Writing application : mkvmerge v33.1.0 ('Primrose') 64-bit
Writing library : libebml v1.3.7 + libmatroska v1.5.0
Video
ID : 1
Format : AVC
Format/Info : Advanced Video Codec
Format profile : High@L4.1
Format settings : CABAC / 4 Ref Frames
Format settings, CABAC : Yes
Format settings, Reference frames : 4 frames
Codec ID : V_MPEG4/ISO/AVC
Duration : 57 min 27 s
Bit rate : 8 383 kb/s
Width : 1 920 pixels
Height : 1 080 pixels
Display aspect ratio : 16:9
Frame rate mode : Constant
Frame rate : 25.000 FPS
Color space : YUV
Chroma subsampling : 4:2:0
Bit depth : 8 bits
Scan type : Progressive
Bits/(Pixel*Frame) : 0.162
Stream size : 3.36 GiB (94%)
Writing library : x264 core 146 r2538 121396c
Encoding settings : cabac=1 / ref=4 / deblock=1:-3:-3 / analyse=0x3:0x113 / me=umh / subme=8 / psy=1 / psy_rd=1.00:0.00 / mixed_ref=1 / me_range=16 / chroma_me=1 / trellis=1 / 8x8dct=1 / cqm=0 / deadzone=21,11 / fast_pskip=1 / chroma_qp_offset=-2 / threads=24 / lookahead_threads=4 / sliced_threads=0 / nr=0 / decimate=1 / interlaced=0 / bluray_compat=0 / constrained_intra=0 / bframes=3 / b_pyramid=2 / b_adapt=2 / b_bias=0 / direct=3 / weightb=1 / open_gop=0 / weightp=2 / keyint=250 / keyint_min=25 / scenecut=40 / intra_refresh=0 / rc_lookahead=50 / rc=2pass / mbtree=1 / bitrate=8383 / ratetol=1.0 / qcomp=0.60 / qpmin=0 / qpmax=69 / qpstep=4 / cplxblur=20.0 / qblur=0.5 / ip_ratio=1.40 / aq=1:1.00
Language : English
Default : Yes
Forced : No
Audio #1
ID : 2
Format : AC-3
Format/Info : Audio Coding 3
Commercial name : Dolby Digital
Codec ID : A_AC3
Duration : 57 min 27 s
Bit rate mode : Constant
Bit rate : 384 kb/s
Channel(s) : 2 channels
Channel layout : L R
Sampling rate : 48.0 kHz
Frame rate : 31.250 FPS (1536 SPF)
Compression mode : Lossy
Stream size : 158 MiB (4%)
Title : TVShows
Language : Russian
Service kind : Complete Main
Default : Yes
Forced : Yes
Audio #2
ID : 3
Format : AAC LC
Format/Info : Advanced Audio Codec Low Complexity
Codec ID : A_AAC-2
Duration : 57 min 26 s
Bit rate : 192 kb/s
Channel(s) : 2 channels
Channel layout : L R
Sampling rate : 48.0 kHz
Frame rate : 46.875 FPS (1024 SPF)
Compression mode : Lossy
Stream size : 80.3 MiB (2%)
Title : Original
Language : English
Default : No
Forced : No
Text
ID : 4
Format : UTF-8
Codec ID : S_TEXT/UTF8
Codec ID/Info : UTF-8 Plain Text
Duration : 57 min 19 s
Bit rate : 62 b/s
Count of elements : 783
Stream size : 26.1 KiB (0%)
Title : English
Language : English
Default : No
Forced : No

Скриншоты

Профиль [ЛС]
Показать сообщения:    

Текущее время: 05-Апр 09:04

Часовой пояс: UTC ± 0



Вы не можете начинать темы
Вы не можете отвечать на сообщения
Вы не можете редактировать свои сообщения
Вы не можете удалять свои сообщения
Вы не можете голосовать в опросах
Вы не можете прикреплять файлы к сообщениям
Вы не можете скачивать файлы