Статистика раздачи
Размер:  1,46 GB   |    Зарегистрирован:  6 месяцев 28 дней   |    Скачан:  0 раз
Сидов:  4  [  0 KB/s  ]   Личеров:  1  [  0 KB/s  ]  
   
 

солнышко ®

Пол:
Не указан
Стаж:
7 месяцев 6 дней
Сообщений:
565

Подчинение / Submission
Страна: США
Жанр: драма
Год выпуска: 2017
Продолжительность: 01:46:24-Перевод: Профессиональный (многоголосый закадровый) | Jaskier
Субтитры: нет
Оригинальная аудиодорожка: нет-Режиссер: Ричард Ливайн / Richard Levine-В ролях: Стэнли Туччи, Эддисон Тимлин, Кира Седжвик, Джанин Гарофало, Ричи Костер, Колби Минифи, Элисон Бартлетт, Хуан Кастано, Дэвид Питту, Генри Страм-Описание: Тед Свенсон — писатель, прославившийся когда-то одним романом, теперь преподаёт в небольшом искусствоведческом колледже. Он вполне счастлив в браке, но жизнь не приносит ему радости: на званых ужинах он пьёт больше, чем нужно, не выбирает выражений при разговорах с коллегами и разочаровывается в бесталанных студентах. Единственная, кто выделяется на этом фоне — молодая и способная Анджела Арго...- -Качество видео: BDRip
Формат видео: AVI
Видео: 720x304 (2.37:1), 23.976 fps, XviD build 73 ~1567 kbps avg, 0.30 bit/pixel
Аудио: 48 kHz, AC3 Dolby Digital, 3/2 (L,C,R,l,r) + LFE ch, ~384 kbps-[box]Сэмпл[/box]-

MediaInfo

Код:Формат : AVI
Формат/Информация : Audio Video Interleave
Размер файла : 1,46 Гбайт
Продолжительность : 1 ч. 46 м.
Общий поток : 1960 Кбит/сек
Программа кодирования : VirtualDubMod 1.5.10.3 | www.virtualdub-fr.org || (build 2550/release)
Библиотека кодирования : VirtualDubMod build 2550/release
Видео
Идентификатор : 0
Формат : MPEG-4 Visual
Профиль формата : Advanced Simple@L5
Настройки формата : BVOP1 / Custom Matrix
Параметр BVOP формата : 1
Параметр QPel формата : Нет
Параметр GMC формата : Без точки перехода
Параметр матрицы формата : Выборочная
Идентификатор кодека : XVID
Идентификатор кодека/Подсказка : XviD
Продолжительность : 1 ч. 46 м.
Битрейт : 1567 Кбит/сек
Ширина : 720 пикселей
Высота : 304 пикселя
Соотношение сторон : 2,35:1
Частота кадров : 23,976 (24000/1001) кадра/сек
Цветовое пространство : YUV
Субдискретизация насыщенности : 4:2:0
Битовая глубина : 8 бит
Тип развёртки : Прогрессивная
Метод сжатия : С потерями
Бит/(Пиксели*Кадры) : 0.299
Размер потока : 1,16 Гбайт (80%)
Библиотека кодирования : XviD 73
Аудио
Идентификатор : 1
Формат : AC-3
Формат/Информация : Audio Coding 3
Коммерческое название : Dolby Digital
Идентификатор кодека : 2000
Продолжительность : 1 ч. 46 м.
Вид битрейта : Постоянный
Битрейт : 384 Кбит/сек
Каналы : 6 каналов
Channel layout : L R C LFE Ls Rs
Частота : 48,0 КГц
Частота кадров : 31,250 кадров/сек (1536 SPF)
Битовая глубина : 16 бит
Метод сжатия : С потерями
Размер потока : 292 Мбайт (20%)
Выравнивание : Разделение по промежуткам
Продолжительность промежутка : 42 мс. (1,00 видеокадр)
Время предзагрузки промежутка : 500 мс.
ServiceKind/String : Complete Main

Скриншоты


[cybertorrent.ru].t1294.torrent 
Торрент: Зарегистрирован [ 2019-03-21 15:52 ] · 798D2EFAD75B173AEE4BB96B2B7D9291555B7E1F

Скачать .torrent

Скачать

15 KB

Статус: проверено
Скачан: 0 раз
Размер: 1,46 GB
terms.php
Профиль ЛС
Показать сообщения:    

Текущее время: 19-Окт 04:07

Часовой пояс: UTC ± 0



Вы не можете начинать темы
Вы не можете отвечать на сообщения
Вы не можете редактировать свои сообщения
Вы не можете удалять свои сообщения
Вы не можете голосовать в опросах
Вы не можете прикреплять файлы к сообщениям
Вы можете скачивать файлы