Статистика раздачи
Нет
 
     
 
 

MAGNAT ®

Пол:
Мужской
Стаж:
2 года 8 месяцев
Сообщений:
13012

Откуда: Москва

Древний остров Борнео / Borneo – Earth’s Ancient Eden
Дата/Год выпуска: 2019
Страна: Австрия, Terra Mater Factual Studios
Жанр: Документальный, природа, флора, фауна
Продолжительность: 00:49:39
Перевод: Студийный (одноголосый закадровый)
Доп. инфо о переводе: СВ-Дубль
Русские субтитры: есть
Формат субтитров: softsub (SRT)
Доп. информация о субтитрах: СВ-Дубль
Режиссер: Мэтт Хэмилтон / Matt Hamilton
Телеканал: Культура
Описание: Рассказ о старейших на Земле влажных тропических лесах, о древнем острове, где живут огромные обезьяны и маленькие медведи, растения-убийцы и медузы-фермеры. Где продолжительность дня никогда не меняется, сила солнца никогда не ослабевает, и обильные дожди создают, казалось бы, идеальные условия для жизни. Но не заблуждайтесь. Захватывающее дух разнообразие острова рождено не изобилием, а крайне неблагоприятной обстановкой и напряжённой борьбой за существование, которая порождает причудливые виды и необычные отношения.
качество: DVB
формат: MKV
Видео: 720x576 (16:9) AVC (H.264) Main@L3.0, ~ 3090 kbps, 25 fps
Аудио: Русский 48 kHz, MPEG Layer 2, 2 ch, ~192.00 kbps avg

MediaInfo

Complete name : F:\Наладки\Древний остров Борнео.mkv
Format : Matroska
Format version : Version 4
File size : 1.16 GiB
Duration : 49 min 39 s
Overall bit rate : 3 348 kb/s
Encoded date : UTC 2020-01-25 10:10:41
Writing application : mkvmerge v6.6.0 ('The Edge Of The In Between') built on Dec 1 2013 17:55:00
Writing library : libebml v1.3.0 + libmatroska v1.4.1
Video
ID : 1
Format : AVC
Format/Info : Advanced Video Codec
Format profile : Main@L3
Format settings : CABAC / 4 Ref Frames
Format settings, CABAC : Yes
Format settings, Reference : 4 frames
Codec ID : V_MPEG4/ISO/AVC
Duration : 49 min 39 s
Bit rate : 3 090 kb/s
Width : 720 pixels
Height : 576 pixels
Display aspect ratio : 16:9
Frame rate mode : Constant
Frame rate : 25.000 FPS
Standard : Component
Color space : YUV
Chroma subsampling : 4:2:0
Bit depth : 8 bits
Scan type : Interlaced
Scan type, store method : Separated fields
Scan order : Top Field First
Bits/(Pixel*Frame) : 0.298
Stream size : 1.07 GiB (92%)
Default : Yes
Forced : No
Color range : Limited
Color primaries : BT.601 PAL
Transfer characteristics : BT.470 System B/G
Matrix coefficients : BT.470 System B/G
Audio
ID : 2
Format : MPEG Audio
Format version : Version 1
Format profile : Layer 2
Codec ID : A_MPEG/L2
Codec ID/Hint : MP2
Duration : 49 min 39 s
Bit rate mode : Constant
Bit rate : 192 kb/s
Channel(s) : 2 channels
Sampling rate : 48.0 kHz
Compression mode : Lossy
Stream size : 68.2 MiB (6%)
Language : Russian
Default : Yes
Forced : No
Text
ID : 3
Format : UTF-8
Codec ID : S_TEXT/UTF8
Codec ID/Info : UTF-8 Plain Text
Title : СВ-Дубль
Language : Russian
Default : No
Forced : No
Профиль [ЛС]
Показать сообщения:    

Текущее время: 01-Дек 04:08

Часовой пояс: UTC ± 0



Вы не можете начинать темы
Вы не можете отвечать на сообщения
Вы не можете редактировать свои сообщения
Вы не можете удалять свои сообщения
Вы не можете голосовать в опросах
Вы не можете прикреплять файлы к сообщениям
Вы не можете скачивать файлы