Статистика раздачи
Размер:  716 MB   |    Зарегистрирован:  3 месяца 8 дней   |    Скачан:  0 раз

Полного источника не было: Никогда

Личеров:  3  [  0 KB/s  ]  
 
   
 
 

lopster ®

Пол:
Не указан
Стаж:
3 месяца 8 дней
Сообщений:
612

Тихие сосны (2009) SATRip- Год выпуска: 2009
Жанр: детектив, мелодрама
Продолжительность: 01:26:36
-Режиссер: Сергей Краснов, Юлия Краснова-В ролях: Антон Макарский, Елена Захарова, Александр Носик, Андрей Барило, Ксения Ильясова, Кирилл Кяро, Ольга Чудакова, Сергей Щеглов, Юлия Агафонова, Евгений Березовский, Евгений Данчевский
-
В загородном доме собираются бывшие одноклассники, чтобы отметить пятнадцать лет со дня окончания школы. Одна из девушек идет гулять и не возвращается. Ребята отправляются в лес на поиски. Вскоре они находят ее мертвой со следами насильственной смерти.
Постепенно выясняется, что у каждого был мотив для убийства. Но кто же преступник?
-

Качество: SATRip
Формат: AVI
Видео кодек: XviD
Аудио кодек: MP3
Видео: 720x576 (1.25:1), 25 fps, XviD build 50 ~1013 kbps avg, 0.10 bit/pixel
Аудио: 48 kHz, MPEG Layer 3, 2 ch, ~128.00 kbps avg

MI

Код:Общее
Полное имя : C:\otkat\Видео\Тихие сосны\Tihie_sosny.2009.SATRip.avi
Формат : AVI
Формат/Информация : Audio Video Interleave
Размер файла : 716 Мбайт
Продолжительность : 1 ч. 26 м.
Общий поток : 1155 Кбит/сек
Программа кодирования : MEncoder UNKNOWN-4.2.4
Библиотека кодирования : MPlayer
Видео
Идентификатор : 0
Формат : MPEG-4 Visual
Профиль формата : Simple@L3
Параметр BVOP формата : Нет
Параметр QPel формата : Нет
Параметр GMC формата : Без точки перехода
Параметр матрицы формата : Default (H.263)
Идентификатор кодека : XVID
Идентификатор кодека/Подсказка : XviD
Продолжительность : 1 ч. 26 м.
Битрейт : 1015 Кбит/сек
Ширина : 720 пикселей
Высота : 576 пикселей
Соотношение сторон : 5:4
Соотношение сторон в оригинале : 4:3
Частота кадров : 25,000 кадров/сек
Стандарт вещания : PAL
Цветовое пространство : YUV
Субдискретизация насыщенности : 4:2:0
Битовая глубина : 8 бит
Тип развёртки : Прогрессивная
Метод сжатия : С потерями
Бит/(Пиксели*Кадры) : 0.098
Размер потока : 628 Мбайт (88%)
Библиотека кодирования : XviD 1.2.1 (UTC 2008-12-04)
Аудио
Идентификатор : 1
Формат : MPEG Audio
Версия формата : Version 1
Профиль формата : Layer 3
Режим : Joint stereo
Расширение режима : MS Stereo
Идентификатор кодека : 55
Идентификатор кодека/Подсказка : MP3
Продолжительность : 1 ч. 26 м.
Вид битрейта : Постоянный
Битрейт : 128 Кбит/сек
Каналы : 2 канала
Частота : 48,0 КГц
Метод сжатия : С потерями
Размер потока : 79,3 Мбайт (11%)
Выравнивание : Соединение по промежуткам
Продолжительность промежутка : 24 мс. (0,60 видеокадр)

Скриншоты


-
[cybertorrent.ru].t130.torrent 
Торрент: Зарегистрирован [ 2018-02-15 13:57 ] · 41C66A691FF05D087326706F7BDCBFF351414D6F

Скачать .torrent

Скачать

14 KB

Статус: проверено
Скачан: 0 раз
Размер: 716 MB
Профиль [ЛС]
Показать сообщения:    

Текущее время: 23-Май 16:41

Часовой пояс: UTC ± 0



Вы не можете начинать темы
Вы не можете отвечать на сообщения
Вы не можете редактировать свои сообщения
Вы не можете удалять свои сообщения
Вы не можете голосовать в опросах
Вы не можете прикреплять файлы к сообщениям
Вы можете скачивать файлы