Статистика раздачи
Нет
 
     
 
 

MAGNAT ®

Пол:
Мужской
Стаж:
2 года 6 месяцев
Сообщений:
11696

Откуда: Москва

Дикая природа Шетлендских островов / Wild Shetland: Scotland's Viking Frontier
Дата/Год выпуска: 2018
Страна: Великобритания, BBC Scotland, Maramedia
Жанр: Документальный, природа, флора, фауна
Продолжительность: 00:58:50
Перевод: Студийный (одноголосый закадровый)
Доп. инфо о переводе: СВ-Дубль
Русские субтитры: есть
Формат субтитров: softsub (SRT)
Доп. информация о субтитрах: СВ-Дубль
Режиссер: Jackie Savery / Джеки Савори
Телеканал: Культура
Описание: Шетлендские острова – самые северные острова Шотландии. Пустынные, удивительные, со своей чарующей нежной красотой. В этих местах царит океан, и всё здесь живет, подчиняясь его изменчивому нраву...
качество: DVB
формат: MKV
Видео: 720x576 (16:9) AVC (H.264) Main@L3.0, ~ 3204 kbps, 25fps
Аудио: Русский 48 kHz, MPEG Layer 2, 2 ch, ~192.00 kbps avg

MediaInfo

Complete name : F:\Наладки\Дикая природа Шетлендских островов.mkv
Format : Matroska
Format version : Version 4
File size : 1.42 GiB
Duration : 58 min 50 s
Overall bit rate : 3 465 kb/s
Encoded date : UTC 2019-12-29 11:42:46
Writing application : mkvmerge v6.6.0 ('The Edge Of The In Between') built on Dec 1 2013 17:55:00
Writing library : libebml v1.3.0 + libmatroska v1.4.1
Video
ID : 1
Format : AVC
Format/Info : Advanced Video Codec
Format profile : Main@L3
Format settings : CABAC / 4 Ref Frames
Format settings, CABAC : Yes
Format settings, Reference : 4 frames
Codec ID : V_MPEG4/ISO/AVC
Duration : 58 min 50 s
Bit rate : 3 204 kb/s
Width : 720 pixels
Height : 576 pixels
Display aspect ratio : 16:9
Frame rate mode : Constant
Frame rate : 25.000 FPS
Standard : Component
Color space : YUV
Chroma subsampling : 4:2:0
Bit depth : 8 bits
Scan type : Interlaced
Scan type, store method : Separated fields
Scan order : Top Field First
Bits/(Pixel*Frame) : 0.309
Stream size : 1.32 GiB (92%)
Default : Yes
Forced : No
Color range : Limited
Color primaries : BT.601 PAL
Transfer characteristics : BT.470 System B/G
Matrix coefficients : BT.470 System B/G
Audio
ID : 2
Format : MPEG Audio
Format version : Version 1
Format profile : Layer 2
Codec ID : A_MPEG/L2
Codec ID/Hint : MP2
Duration : 58 min 50 s
Bit rate mode : Constant
Bit rate : 192 kb/s
Channel(s) : 2 channels
Sampling rate : 48.0 kHz
Compression mode : Lossy
Stream size : 80.8 MiB (6%)
Language : Russian
Default : Yes
Forced : No
Text
ID : 3
Format : UTF-8
Codec ID : S_TEXT/UTF8
Codec ID/Info : UTF-8 Plain Text
Title : СВ-Дубль
Language : Russian
Default : No
Forced : No
Профиль [ЛС]
Показать сообщения:    

Текущее время: 20-Окт 03:04

Часовой пояс: UTC ± 0



Вы не можете начинать темы
Вы не можете отвечать на сообщения
Вы не можете редактировать свои сообщения
Вы не можете удалять свои сообщения
Вы не можете голосовать в опросах
Вы не можете прикреплять файлы к сообщениям
Вы не можете скачивать файлы