Статистика раздачи
Нет
 
     
 
 

MAGNAT ®

Пол:
Мужской
Стаж:
2 года 6 месяцев
Сообщений:
11696

Откуда: Москва

Живая природа Кубы / Cuba's Wild Revolution
Дата/Год выпуска: 2019
Страна: Австрия, CTL Films for ORF, PBS, BBC, France 5
Жанр: Документальный, природа, флора, фауна
Продолжительность: 00:52:38
Перевод: Студийный (одноголосый закадровый)
Доп. инфо о переводе: СВ-Дубль
Русские субтитры: есть
Формат субтитров: softsub (SRT)
Доп. информация о субтитрах: СВ-Дубль
Режиссер: Джон Мюррей / John Murray
Телеканал: Культура
Описание: В западной части Атлантического океана есть совершенно уникальное место – остров – словно из другого времени… К его девственному первозданному побережью по-прежнему приплывают из океанских глубин древние существа. Куба – самый большой из Карибских островов.
Сегодня Куба – величайшая природная драгоценность Карибского бассейна. В её обширных лесах кипит жизнь. В кристально чистых водах таятся изумительные коралловые рифы. В то время как значительная часть природных богатств Карибского региона погибает, Куба, с её необычной историей превратилась в настоящую "страну чудес" в дикой природе.
качество: DVB
формат: MKV
Видео: 720x576 (16:9) AVC (H.264) Main@L3.0, ~ 3096 kbps, 25fps
Аудио: Русский 48 kHz, MPEG Layer 2, 2 ch, ~192.00 kbps avg

MediaInfo

Complete name : F:\Наладки\Живая природа Кубы.mkv
Format : Matroska
Format version : Version 4
File size : 1.23 GiB
Duration : 52 min 38 s
Overall bit rate : 3 355 kb/s
Encoded date : UTC 2019-12-28 10:55:30
Writing application : mkvmerge v6.6.0 ('The Edge Of The In Between') built on Dec 1 2013 17:55:00
Writing library : libebml v1.3.0 + libmatroska v1.4.1
Video
ID : 1
Format : AVC
Format/Info : Advanced Video Codec
Format profile : Main@L3
Format settings : CABAC / 4 Ref Frames
Format settings, CABAC : Yes
Format settings, Reference : 4 frames
Codec ID : V_MPEG4/ISO/AVC
Duration : 52 min 38 s
Bit rate : 3 096 kb/s
Width : 720 pixels
Height : 576 pixels
Display aspect ratio : 16:9
Frame rate mode : Constant
Frame rate : 25.000 FPS
Standard : Component
Color space : YUV
Chroma subsampling : 4:2:0
Bit depth : 8 bits
Scan type : Interlaced
Scan type, store method : Interleaved fields
Scan order : Top Field First
Bits/(Pixel*Frame) : 0.299
Stream size : 1.14 GiB (92%)
Default : Yes
Forced : No
Color range : Limited
Color primaries : BT.601 PAL
Transfer characteristics : BT.470 System B/G
Matrix coefficients : BT.470 System B/G
Audio
ID : 2
Format : MPEG Audio
Format version : Version 1
Format profile : Layer 2
Codec ID : A_MPEG/L2
Codec ID/Hint : MP2
Duration : 52 min 38 s
Bit rate mode : Constant
Bit rate : 192 kb/s
Channel(s) : 2 channels
Sampling rate : 48.0 kHz
Compression mode : Lossy
Stream size : 72.3 MiB (6%)
Language : Russian
Default : Yes
Forced : No
Text
ID : 3
Format : UTF-8
Codec ID : S_TEXT/UTF8
Codec ID/Info : UTF-8 Plain Text
Title : СВ-Дубль
Language : Russian
Default : No
Forced : No

Скриншоты 1047x576


Профиль [ЛС]
Показать сообщения:    

Текущее время: 20-Окт 04:42

Часовой пояс: UTC ± 0



Вы не можете начинать темы
Вы не можете отвечать на сообщения
Вы не можете редактировать свои сообщения
Вы не можете удалять свои сообщения
Вы не можете голосовать в опросах
Вы не можете прикреплять файлы к сообщениям
Вы не можете скачивать файлы