Статистика раздачи
Нет
 
     
 
 

MAGNAT ®

Пол:
Мужской
Стаж:
2 года 6 месяцев
Сообщений:
11696

Откуда: Москва

Из любви к собакам. Рождественский выпуск 2017 год / Paul O'Grady: For the Love of Dogs at Christmas 2017
Дата/Год выпуска: 2017
Страна: Великобритания
Жанр: Документальный фильм
Продолжительность: 00:46:39
Перевод: Студийный (одноголосый закадровый)
Доп. инфо о переводе: SDI-media
Русские субтитры: нет
Режиссер: Ник Веб / Nick Webb
Телеканал: Viasat Nature
Описание: Пол О'Грэди знакомит нас с новыми волнующими историями обитателей приюта Баттерси для собак и кошек, производящими в рождественские дни ещё более трогательное впечатление. Главными героями передачи являются собаки, сохранившие свою яркую индивидуальность несмотря на плохой уход и жестокое обращение в прошлом. Сотрудники приюта неустанно трудятся, чтобы подарить каждому псу второй шанс и лучшее будущее. Очаровательные животные, излучающие оптимизм вопреки всем пережитым невзгодам, и их удивительные истории со счастливым концом никого не оставят равнодушным.
качество: SATRip
формат: AVI
Видео: XviD, 720 х 400 пикс, 1795 Кбит/сек, 25,000 кадров/сек, 0.249 Бит/(Пиксели*Кадры)
Аудио: MP3, 160 Кбит/сек Постоянный, 48,0 КГц, 2 канала

MediaInfo

Общее
Полное имя : C:\фильмы\02 возможно для раздачи\Рождество 2017год (из любви к собакам)\Из любви к собакам. Рождество 2017г.avi
Формат : AVI
Формат/Информация : Audio Video Interleave
Размер файла : 656 Мбайт
Продолжительность : 46 м. 39 с.
Общий поток : 1965 Кбит/сек
Видео
Идентификатор : 0
Формат : MPEG-4 Visual
Профиль формата : Advanced Simple@L4
Параметр BVOP формата : Нет
Параметр QPel формата : Нет
Параметр GMC формата : Без точки перехода
Параметр матрицы формата : Default (H.263)
Идентификатор кодека : XVID
Идентификатор кодека/Подсказка : XviD
Продолжительность : 46 м. 39 с.
Битрейт : 1795 Кбит/сек
Ширина : 720 пикселей
Высота : 400 пикселей
Соотношение сторон : 16:9
Частота кадров : 25,000 кадров/сек
Цветовое пространство : YUV
Субдискретизация насыщенности : 4:2:0
Битовая глубина : 8 бит
Тип развёртки : Прогрессивная
Метод сжатия : С потерями
Бит/(Пиксели*Кадры) : 0.249
Размер потока : 599 Мбайт (91%)
Аудио
Идентификатор : 1
Формат : MPEG Audio
Версия формата : Version 1
Профиль формата : Layer 3
Идентификатор кодека : 55
Идентификатор кодека/Подсказка : MP3
Продолжительность : 46 м. 38 с.
Продолжительность оригинала : 46 м. 38 с.
Вид битрейта : Постоянный
Битрейт : 160 Кбит/сек
Каналы : 2 канала
Частота : 48,0 КГц
Метод сжатия : С потерями
Размер потока : 53,4 Мбайт (8%)
Выравнивание : Соединение по промежуткам
Продолжительность промежутка : 40 мс. (1,00 видеокадр)

Скриншоты


Профиль [ЛС]
Показать сообщения:    

Текущее время: 20-Окт 03:06

Часовой пояс: UTC ± 0



Вы не можете начинать темы
Вы не можете отвечать на сообщения
Вы не можете редактировать свои сообщения
Вы не можете удалять свои сообщения
Вы не можете голосовать в опросах
Вы не можете прикреплять файлы к сообщениям
Вы не можете скачивать файлы