Статистика раздачи
Нет
 
     
 
 

MAGNAT ®

Пол:
Мужской
Стаж:
2 года 6 месяцев
Сообщений:
11696

Откуда: Москва

Город полярных медведей (Город белых медведей) 2 сезон / Polar Bear Town
Дата/Год выпуска: 2017
Страна: Канада
Жанр: Документальный
Продолжительность: 3 х ~ 00:49:15
Перевод: Студийный (одноголосый закадровый)
Доп. инфо о переводе: SDI-media
Русские субтитры: нет
Режиссер: Джеф Нейман / Jeff Newman
Телеканал: Viasat Nature
Описание: Каждую осень миграционный путь тысячи оголодавших белых медведей проходит через пограничный город Черчилл в Манитобе. Число его жителей вырастает с 800 до 10000, когда туда устремляются люди, мечтающие увидеть этих животных. Келси Элиассон, вооруженный одной ракетницей, сопровождает клиентов среди величественных медведей. Движимый страстью к приключениям, он отваживается приближаться к ним вплотную, стремясь защитить как людей, так и животных. Его друг и наставник Деннис Компайр отлично ладит с медведями и местными жителями. Бывший хиппи Брайан Ладун хоть и не является проводником, но тоже не сидит без дела: его свора эскимосских собак привлекает любопытных медведей и туристов.

Доп. информация:

перевод, озвучка: SDI-media 2017 год, перевод Анастасия Филипова, текст читал Илья Слоневский;
от 12-ти лет;
Ведущие: Келси Элиассон, Деннис Компейр
качество: SATRip
формат: AVI
Видео: XviD, 720 х 400 пикс, ~ 1500 Кбит/сек, 25,000 кадров/сек, 0.208 Бит/(Пиксели*Кадры)
Аудио: MP3, 160 Кбит/сек Постоянный, 48,0 КГц, 2 канала

Список выпусков/серий

1 Медведи против белуг
2 В поисках Большой Медведицы
3 Большой Исход

MediaInfo

для 1 серии, остальные серии налогичны.
Общее
Полное имя : C:\фильмы\02 возможно для раздачи\2сезон Город полярных медведей (1-3серии из 3)\Город полярных медведей 2сезон 2017г (3 серии из 3)\2сезон 1серия_Город полярных медведей.avi
Формат : AVI
Формат/Информация : Audio Video Interleave
Размер файла : 591 Мбайт
Продолжительность : 49 м. 28 с.
Общий поток : 1670 Кбит/сек
Видео
Идентификатор : 0
Формат : MPEG-4 Visual
Профиль формата : Advanced Simple@L4
Параметр BVOP формата : Нет
Параметр QPel формата : Нет
Параметр GMC формата : Без точки перехода
Параметр матрицы формата : Default (H.263)
Идентификатор кодека : XVID
Идентификатор кодека/Подсказка : XviD
Продолжительность : 49 м. 28 с.
Битрейт : 1501 Кбит/сек
Ширина : 720 пикселей
Высота : 400 пикселей
Соотношение сторон : 16:9
Частота кадров : 25,000 кадров/сек
Цветовое пространство : YUV
Субдискретизация насыщенности : 4:2:0
Битовая глубина : 8 бит
Тип развёртки : Прогрессивная
Метод сжатия : С потерями
Бит/(Пиксели*Кадры) : 0.208
Размер потока : 531 Мбайт (90%)
Аудио
Идентификатор : 1
Формат : MPEG Audio
Версия формата : Version 1
Профиль формата : Layer 3
Идентификатор кодека : 55
Идентификатор кодека/Подсказка : MP3
Продолжительность : 49 м. 28 с.
Продолжительность оригинала : 49 м. 28 с.
Вид битрейта : Постоянный
Битрейт : 160 Кбит/сек
Каналы : 2 канала
Частота : 48,0 КГц
Метод сжатия : С потерями
Размер потока : 56,6 Мбайт (10%)
Выравнивание : Соединение по промежуткам
Продолжительность промежутка : 40 мс. (1,00 видеокадр)

Скриншоты


Профиль [ЛС]
Показать сообщения:    

Текущее время: 20-Окт 04:17

Часовой пояс: UTC ± 0



Вы не можете начинать темы
Вы не можете отвечать на сообщения
Вы не можете редактировать свои сообщения
Вы не можете удалять свои сообщения
Вы не можете голосовать в опросах
Вы не можете прикреплять файлы к сообщениям
Вы не можете скачивать файлы