Статистика раздачи
Нет
 
     
 
 

MAGNAT ®

Пол:
Мужской
Стаж:
2 года 8 месяцев
Сообщений:
13012

Откуда: Москва

Тайная (таинственная,секретная) жизнь собак 2 сезон (3 серии из 3) / Secret Life of Dogs 2 season
Дата/Год выпуска: 2017
Страна: Великобритания
Жанр: Документальный фильм, кинология
Продолжительность: 3 х ~ 00:50:10
Перевод: Профессиональный (двухголосый закадровый)
Доп. инфо о переводе: SDI-медиа
Русские субтитры: нет
Режиссер: Том Пеппиатт / Tom Peppiatt (1,2 серии), Роб Нейл / Rob Neil (3-я серия)
Телеканал: Живая планета
Описание: Увлекательный документальный фильм английских кинематографистов позволяет нам по-новому взглянуть на собак - животных, которых мы привыкли считать нашими лучшими друзьями. Даже не задумываясь о том, какую роль они играют в нашей жизни.
Став социальным партнером человека, собаки выработали специальные навыки для общения с ним - научились понимать не только человеческие жесты, но и наши эмоции. Новейшие исследования доказывают, что собаки обладают гораздо более развитым интеллектом, чем шимпанзе, которые считаются ближайшими родственниками человека. Одна из "героинь" фильма - собака породы бордер колли - понимает 340 слов и обладает способностью к абстрактному мышлению, что сопоставимо с уровнем развития двухлетнего ребенка. Это подтверждает мнение многих владельцев собак, утверждающих, что их любимцы понимают человеческую речь гораздо лучше, чем это принято считать.
Многие историки считают, что влияние собак на развитие человеческого общества было не просто важным - определяющим. Если бы наши далекие предки не приручили волков, от которых произошли домашние собаки, люди никогда бы не перешли от охоты и собирательства к скотоводству и земледелию, дальнейшее развитие цивилизации было бы попросту невозможным.
Доп. информация: это 2-ой сезон серии фильмов "Тайная жизнь собак" (1 сезон - это фильм 2013 года)
от 12 лет
фильм сделан в 2016г, а показан в 2017г
студия Oxford scientific films prodction
качество: TVRip
формат: AVI
Видео: XviD, 720 х 416 пикс, ~ 1600 Кбит/сек, 25,0 кадр/сек, 0.214 Бит/(Пиксели*Кадры)
Аудио: MP3, 160 Кбит/сек Постоянный, 48,0 КГц, 2 канала

Список и содержание серий

серия 1 - Лучший друг человека
Приблизительно миллиард человек во всем мире удивляет, что только недавно мы действительно начали понимать жизнь наших любимых собак, а ученые только начинают раскрывать их эмоциональный и интеллектуальный гений. Благодаря своим необычайным способностям читать наши эмоции, воспринимать нашу точку зрения и превосходить свои физические способности, наши самые близкие спутники смогли присоединиться к нам во всех сферах жизни - по-настоящему заработать лучшего друга этого человека.
серия 2 - Работать как собака
Теперь мы узнаем более 400 пород собак, каждая из которых имеет свою удивительную, часто загадочную историю - фактически, мы разводили собак практически для каждой работы, которую вы можете себе представить; и поскольку наш современный мир меняется, собаки адаптировались вместе с нами. Беспрецедентное сотрудничество между нами и нашими собаками привело к некоторым из самых замечательных партнерств на земле, от овчарок до собак-поводырей; и собаки приносят все, от своих сверхчувств до очевидного энтузиазма, на все свои разные роли в нашем современном мире.
серия 3 - Мы - Семья
Собаки разделяют более 99% своей ДНК с серым волком, и всё же за более чем 10 000-летнюю историю в наших домах появилось несколько ключевых особенностей, которые отличают их друг от друга - самое главное, невероятные узы, которые они могут создать с нами. Будучи первым в мире домашним животным, мы проводим больше времени с нашими собаками-компаньонами, чем с колесом, и поэтому они занимают особое место в культурах по всему миру; На самом деле, новая наука показывает, как даже если смотреть в глаза вашей собаки, мы оба вырабатываем гормоны любви, и это только одна причина, по которой наши два вида стали ближе, чем когда-либо прежде.

MediaInfo

для 1 серии, остальные серии аналогичны
Общее
Полное имя : C:\фильмы\02 возможно для раздачи\Тайная (таинственная,секретная) жизнь собак 2016г BBC (3серии) ТВрип\Taynaya.jizn.sobak.2016.TVRip\1.seriya.2016.XviD.TVRip.avi
Формат : AVI
Формат/Информация : Audio Video Interleave
Размер файла : 633 Мбайт
Продолжительность : 50 м. 1 с.
Общий поток : 1770 Кбит/сек
Видео
Идентификатор : 0
Формат : MPEG-4 Visual
Профиль формата : Advanced Simple@L4
Параметр BVOP формата : Нет
Параметр QPel формата : Нет
Параметр GMC формата : Без точки перехода
Параметр матрицы формата : Default (H.263)
Идентификатор кодека : XVID
Идентификатор кодека/Подсказка : XviD
Продолжительность : 50 м. 1 с.
Битрейт : 1600 Кбит/сек
Ширина : 720 пикселей
Высота : 416 пикселей
Соотношение сторон : 1,731
Частота кадров : 25,000 кадров/сек
Цветовое пространство : YUV
Субдискретизация насыщенности : 4:2:0
Битовая глубина : 8 бит
Тип развёртки : Прогрессивная
Метод сжатия : С потерями
Бит/(Пиксели*Кадры) : 0.214
Размер потока : 573 Мбайт (90%)
Аудио
Идентификатор : 1
Формат : MPEG Audio
Версия формата : Version 1
Профиль формата : Layer 3
Идентификатор кодека : 55
Идентификатор кодека/Подсказка : MP3
Продолжительность : 50 м. 1 с.
Продолжительность оригинала : 50 м. 1 с.
Вид битрейта : Постоянный
Битрейт : 160 Кбит/сек
Каналы : 2 канала
Частота : 48,0 КГц
Метод сжатия : С потерями
Размер потока : 57,3 Мбайт (9%)
Выравнивание : Соединение по промежуткам
Продолжительность промежутка : 40 мс. (1,00 видеокадр)

Скриншоты


Профиль [ЛС]
Показать сообщения:    

Текущее время: 01-Дек 04:13

Часовой пояс: UTC ± 0



Вы не можете начинать темы
Вы не можете отвечать на сообщения
Вы не можете редактировать свои сообщения
Вы не можете удалять свои сообщения
Вы не можете голосовать в опросах
Вы не можете прикреплять файлы к сообщениям
Вы не можете скачивать файлы