Статистика раздачи
Нет
 
     
 
 

MAGNAT ®

Пол:
Мужской
Стаж:
2 года 8 месяцев
Сообщений:
13012

Откуда: Москва

Земля. Природа нашей планеты / Earth: The Nature of our Planet
Дата/Год выпуска: 2018
Страна: Австрия, Германия, Terra Mater Factual Studios
Жанр: Документальный, природа, флора, фауна
Продолжительность: 3 х ~00:49:48
Перевод: Студийный (одноголосый закадровый)
Доп. инфо о переводе: Видеофильм ТВ
Режиссер: Иво Филач / Ivo Filatsch
Телеканал: Наука
Описание: При взгляде из космоса наша голубая планета кажется такой же знакомой, как давний друг - настолько знакомой, что мы забываем, насколько она действительно необычна. Насколько нам известно, наш мир уникален во вселенной, определяемой тремя элементами: воздухом, землей и водой. Каждый элемент имеет свои особые свойства и явления и является домом для множества форм жизни, которые проникли в каждую среду обитания, от самых глубоких океанов до мельчайших уголков и щелей.
В трех захватывающих эпизодах исследуются тайны растительного и животного мира; погодные и геологические явления и чудеса природы с точки зрения стихии. Воздух, Земля и Вода - не только сцены для этого драматического театра жизни, но и сами по себе динамические сферы, связанные друг с другом удивительными отношениями.
качество: DVB
формат: TS
Видео: 720x576 (16:9) AVC (H.264) Main@L3.0, ~ 2014 kbps, 25fps
Аудио: Русский 48 kHz, MPEG Layer 2, 2 ch, ~192.00 kbps avg

Список выпусков/серий

01. Воздух / Air
В первом эпизоде речь пойдет о воздухе, необходимом всем живым существам кислороде, а также об акустических свойствах воздуха и ветрах, в определенных условиях приводящих к катастрофическим последствиям.
02. Суша / Land
Почва дает нам еду и строительные материалы. Земля — уникальный ресурс и страшная стихия, о которой стоит знать как можно больше.
03. Вода / Water
Есть ирония в том, что мы называем планету "Земля", когда две три ее поверхности покрыты водой! Океаны с их колебаниями температуры и течениями являются движущей силой климата и обеспечивают среду обитания для бесчисленного разнообразия видов.

MediaInfo

Complete name : F:\Наладки\SD-фильмы\Земля. Природа нашей планеты\01. Воздух.ts
Format : MPEG-TS
File size : 828 MiB
Duration : 49 min 48 s
Overall bit rate mode : Variable
Overall bit rate : 2 323 kb/s
Video
ID : 401 (0x191)
Menu ID : 2608 (0xA30)
Format : AVC
Format/Info : Advanced Video Codec
Format profile : Main@L3
Format settings : CABAC / 4 Ref Frames
Format settings, CABAC : Yes
Format settings, Reference : 4 frames
Codec ID : 27
Duration : 49 min 48 s
Bit rate : 2 014 kb/s
Width : 720 pixels
Height : 576 pixels
Display aspect ratio : 16:9
Frame rate : 25.000 FPS
Standard : Component
Color space : YUV
Chroma subsampling : 4:2:0
Bit depth : 8 bits
Scan type : Interlaced
Scan type, store method : Separated fields
Scan order : Top Field First
Bits/(Pixel*Frame) : 0.194
Stream size : 718 MiB (87%)
Color range : Limited
Color primaries : BT.601 PAL
Transfer characteristics : BT.470 System B/G
Matrix coefficients : BT.470 System B/G
Audio
ID : 402 (0x192)
Menu ID : 2608 (0xA30)
Format : MPEG Audio
Format version : Version 1
Format profile : Layer 2
Codec ID : 3
Duration : 49 min 48 s
Bit rate mode : Constant
Bit rate : 192 kb/s
Channel(s) : 2 channels
Sampling rate : 48.0 kHz
Frame rate : 41.667 FPS (1152 SPF)
Compression mode : Lossy
Delay relative to video : -80 ms
Stream size : 68.4 MiB (8%)
Language : Russian
Complete name : F:\Наладки\SD-фильмы\Земля. Природа нашей планеты\02. Суша.ts
Format : MPEG-TS
File size : 941 MiB
Duration : 49 min 57 s
Overall bit rate mode : Variable
Overall bit rate : 2 632 kb/s
Video
ID : 401 (0x191)
Menu ID : 2608 (0xA30)
Format : AVC
Format/Info : Advanced Video Codec
Format profile : Main@L3
Format settings : CABAC / 4 Ref Frames
Format settings, CABAC : Yes
Format settings, Reference : 4 frames
Codec ID : 27
Duration : 49 min 57 s
Bit rate : 2 308 kb/s
Width : 720 pixels
Height : 576 pixels
Display aspect ratio : 16:9
Frame rate : 25.000 FPS
Standard : Component
Color space : YUV
Chroma subsampling : 4:2:0
Bit depth : 8 bits
Scan type : Interlaced
Scan type, store method : Separated fields
Scan order : Top Field First
Bits/(Pixel*Frame) : 0.223
Stream size : 825 MiB (88%)
Color range : Limited
Color primaries : BT.601 PAL
Transfer characteristics : BT.470 System B/G
Matrix coefficients : BT.470 System B/G
Audio
ID : 402 (0x192)
Menu ID : 2608 (0xA30)
Format : MPEG Audio
Format version : Version 1
Format profile : Layer 2
Codec ID : 3
Duration : 49 min 57 s
Bit rate mode : Constant
Bit rate : 192 kb/s
Channel(s) : 2 channels
Sampling rate : 48.0 kHz
Frame rate : 41.667 FPS (1152 SPF)
Compression mode : Lossy
Stream size : 68.6 MiB (7%)
Language : Russian
Complete name : F:\Наладки\SD-фильмы\Земля. Природа нашей планеты\03. Вода .ts
Format : MPEG-TS
File size : 1.05 GiB
Duration : 49 min 44 s
Overall bit rate mode : Variable
Overall bit rate : 3 015 kb/s
Video
ID : 401 (0x191)
Menu ID : 2608 (0xA30)
Format : AVC
Format/Info : Advanced Video Codec
Format profile : Main@L3
Format settings : CABAC / 4 Ref Frames
Format settings, CABAC : Yes
Format settings, Reference : 4 frames
Codec ID : 27
Duration : 49 min 44 s
Bit rate : 2 672 kb/s
Width : 720 pixels
Height : 576 pixels
Display aspect ratio : 16:9
Frame rate : 25.000 FPS
Standard : Component
Color space : YUV
Chroma subsampling : 4:2:0
Bit depth : 8 bits
Scan type : Interlaced
Scan type, store method : Separated fields
Scan order : Top Field First
Bits/(Pixel*Frame) : 0.258
Stream size : 951 MiB (89%)
Color range : Limited
Color primaries : BT.601 PAL
Transfer characteristics : BT.470 System B/G
Matrix coefficients : BT.470 System B/G
Audio
ID : 402 (0x192)
Menu ID : 2608 (0xA30)
Format : MPEG Audio
Format version : Version 1
Format profile : Layer 2
Codec ID : 3
Duration : 49 min 44 s
Bit rate mode : Constant
Bit rate : 192 kb/s
Channel(s) : 2 channels
Sampling rate : 48.0 kHz
Frame rate : 41.667 FPS (1152 SPF)
Compression mode : Lossy
Stream size : 68.3 MiB (6%)
Language : Russian
Профиль [ЛС]
Показать сообщения:    

Текущее время: 01-Дек 04:03

Часовой пояс: UTC ± 0



Вы не можете начинать темы
Вы не можете отвечать на сообщения
Вы не можете редактировать свои сообщения
Вы не можете удалять свои сообщения
Вы не можете голосовать в опросах
Вы не можете прикреплять файлы к сообщениям
Вы не можете скачивать файлы