Статистика раздачи
Нет
 
     
 
 

MAGNAT ®

Пол:
Мужской
Стаж:
2 года 8 месяцев
Сообщений:
13012

Откуда: Москва

Дресс-код в дикой природе. Кто что носит и почему? / Nature's Dress Code - Who Wears What and Why
Дата/Год выпуска: 2019
Страна: Германия, WDR, BR, HR, SWR, arte
Жанр: Документальный, природа, флора, фауна
Продолжительность: 00:51:24
Перевод: Студийный (одноголосый закадровый)
Доп. инфо о переводе: СВ-Дубль
Русские субтитры: есть
Формат субтитров: softsub (SRT)
Доп. информация о субтитрах: СВ-Дубль
Режиссер: Роберт Зигл / Robert Sigl
Телеканал: Культура
Описание: Всегда один и тот же вопрос: что надеть? Что-то изящное и элегантное? Что-то экстравагантное или скромное и однотонное? Животные относятся к этому проще, чем мы, люди. Нарядами их обеспечивает сама природа. Броня для сражений, воротник из ярких перьев для обольщения, широкие снегоступы, чтобы не проваливаться в глубокие сугробы. У каждого животного есть идеальный костюм. Так нам кажется. Но в действительности все не просто. У животных тоже есть проблемы с имиджем. Они тоже следуют моде и должны обращать внимание на свою внешность.
качество: DVB
формат: MKV
Видео: 720x576 (16:9) AVC (H.264) Main@L3.0, ~ 3186 kbps, 25fps
Аудио: Русский 48 kHz, MPEG Layer 2, 2 ch, ~192.00 kbps avg

MediaInfo

Complete name : F:\Наладки\Дресс-код в дикой природе_ Кто что носит и почему.mkv
Format : Matroska
Format version : Version 4
File size : 1.21 GiB
Duration : 51 min 24 s
Overall bit rate : 3 383 kb/s
Encoded date : UTC 2019-11-04 09:02:47
Writing application : mkvmerge v35.0.0 ('All The Love In The World') 32-bit
Writing library : libebml v1.3.9 + libmatroska v1.5.2
Video
ID : 1
Format : AVC
Format/Info : Advanced Video Codec
Format profile : Main@L3
Format settings : CABAC / 4 Ref Frames
Format settings, CABAC : Yes
Format settings, Reference : 4 frames
Codec ID : V_MPEG4/ISO/AVC
Duration : 51 min 24 s
Bit rate : 3 186 kb/s
Width : 720 pixels
Height : 576 pixels
Display aspect ratio : 16:9
Frame rate mode : Variable
Frame rate : 25.193 FPS
Original frame rate : 25.000 FPS
Standard : Component
Color space : YUV
Chroma subsampling : 4:2:0
Bit depth : 8 bits
Scan type : Interlaced
Scan type, store method : Separated fields
Scan order : Top Field First
Bits/(Pixel*Frame) : 0.305
Stream size : 1.14 GiB (94%)
Default : Yes
Forced : No
Color range : Limited
Color primaries : BT.601 PAL
Transfer characteristics : BT.470 System B/G
Matrix coefficients : BT.470 System B/G
Audio
ID : 2
Format : MPEG Audio
Format version : Version 1
Format profile : Layer 2
Codec ID : A_MPEG/L2
Codec ID/Hint : MP2
Duration : 51 min 24 s
Bit rate mode : Constant
Bit rate : 192 kb/s
Channel(s) : 2 channels
Sampling rate : 48.0 kHz
Frame rate : 41.667 FPS (1152 SPF)
Compression mode : Lossy
Stream size : 70.6 MiB (6%)
Title : СВ-Дубль
Language : Russian
Default : Yes
Forced : No
Text
ID : 3
Format : UTF-8
Codec ID : S_TEXT/UTF8
Codec ID/Info : UTF-8 Plain Text
Duration : 51 min 17 s
Bit rate : 115 b/s
Count of elements : 602
Stream size : 43.5 KiB (0%)
Title : СВ-Дубль
Language : Russian
Default : No
Forced : No

Скриншоты 1047x576


Профиль [ЛС]
Показать сообщения:    

Текущее время: 01-Дек 03:39

Часовой пояс: UTC ± 0



Вы не можете начинать темы
Вы не можете отвечать на сообщения
Вы не можете редактировать свои сообщения
Вы не можете удалять свои сообщения
Вы не можете голосовать в опросах
Вы не можете прикреплять файлы к сообщениям
Вы не можете скачивать файлы