Статистика раздачи
Нет
 
     
 
 

MAGNAT ®

Пол:
Мужской
Стаж:
2 года 8 месяцев
Сообщений:
13012

Откуда: Москва

-Медведи Камчатки. Начало жизни-- -Год выпуска: 2018
Страна: Россия
Жанр: документальный
Продолжительность: 00:52:35-Перевод: не требуется
Русские субтитры: нет
Оригинальная аудиодорожка: русская iTunes-Режиссер: Владислав Гришин, Ирина Журавлева-В ролях: Анатолий Белый-Описание: Документальный фильм рассказывает о первом годе жизни бурых медведей по сценарию, написанному самой природой. На протяжении семи месяцев съёмочная группа наблюдала за несколькими медвежьими семьями на территории Южно-Камчатского федерального заказника им. Т. И. Шпиленка, чтобы запечатлеть тайны взросления одного из самых крупных хищников России. Это особенная картина, которая переносит зрителя в мир вулканов, рек и диких животных - мир, где человеку отведена роль наблюдателя. Цель создателей - погрузить зрителей в атмосферу природного равновесия, которая все ещё сохраняется на заповедных территориях.-качество: WEB-DLRip-AVC
формат: MKV-Видео: MPEG-4 AVC, 768x432 (16:9), 25.000 fps, ~1600 kbps avg, 0.193 bit/pixel
Аудио: 48 kHz, AC3 Dolby Digital, 3/2 (L,C,R,l,r) + LFE ch, ~384 kbps avg-

MediaInfo

Код:Complete name : D:\Раздача\Медведи Камчатки. Начало жизни (2018) WEB-DLRip-AVC_ivanes.mkv
Format : Matroska
Format version : Version 2
File size : 747 MiB
Duration : 52 min 35 s
Overall bit rate : 1 986 kb/s
Movie name : Медведи Камчатки. Начало жизни (2018) WEB-DLRip-AVC_ivanes
Encoded date : UTC 2019-10-09 19:14:15
Writing application : mkvmerge v4.4.0 ('Die Wiederkehr') сборка от Jan 3 2011 21:40:45
Writing library : libebml v1.0.0 + libmatroska v1.0.0
Cover : Yes
Attachments : cover.jpg
Video
ID : 1
Format : AVC
Format/Info : Advanced Video Codec
Format profile : High@L4.1
Format settings : CABAC / 10 Ref Frames
Format settings, CABAC : Yes
Format settings, Reference : 10 frames
Codec ID : V_MPEG4/ISO/AVC
Duration : 52 min 35 s
Bit rate : 1 600 kb/s
Width : 768 pixels
Height : 432 pixels
Display aspect ratio : 16:9
Frame rate mode : Constant
Frame rate : 25.000 FPS
Color space : YUV
Chroma subsampling : 4:2:0
Bit depth : 8 bits
Scan type : Progressive
Bits/(Pixel*Frame) : 0.193
Stream size : 588 MiB (79%)
Title : Rip by ivanes
Writing library : x264 core 158 r2984+49 6932f4a t_mod_New [0-bit@all X86]
Encoding settings : cabac=1 / ref=10 / deblock=1:-3:-3 / analyse=0x3:0x113 / me=umh / subme=8 / psy=1 / fade_compensate=0.00 / psy_rd=1.00:0.00 / mixed_ref=1 / me_range=32 / chroma_me=1 / trellis=2 / 8x8dct=1 / cqm=0 / deadzone=21,11 / fast_pskip=0 / chroma_qp_offset=-2 / threads=12 / lookahead_threads=3 / sliced_threads=0 / nr=0 / decimate=1 / interlaced=0 / bluray_compat=0 / constrained_intra=0 / fgo=0 / bframes=10 / b_pyramid=2 / b_adapt=2 / b_bias=0 / direct=1 / weightb=1 / open_gop=0 / weightp=2 / keyint=250 / keyint_min=25 / scenecut=40 / intra_refresh=0 / rc_lookahead=60 / rc=2pass / mbtree=0 / bitrate=1600 / ratetol=1.0 / qcomp=0.60 / qpmin=0:0:0 / qpmax=69:69:69 / qpstep=4 / cplxblur=20.0 / qblur=0.5 / vbv_maxrate=50000 / vbv_bufsize=62500 / nal_hrd=none / filler=0 / ip_ratio=1.40 / pb_ratio=1.30 / aq=1:1.00 / aq-sensitivity=10.00 / aq-factor=1.00:1.00:1.00 / aq2=0 / aq3=0
Default : Yes
Forced : No
Statistics Tags Issue : mkvmerge v29.0.0 ('Like It Or Not') 64-bit 2019-10-09 19:13:18 / mkvmerge v4.4.0 ('Die Wiederkehr') сборка от Jan 3 2011 21:40:45 2019-10-09 19:14:15
FromStats_BitRate : 1599930
FromStats_Duration : 00:52:35.000000000
FromStats_FrameCount : 78875
FromStats_StreamSize : 630972464
Audio
ID : 2
Format : AC-3
Format/Info : Audio Coding 3
Commercial name : Dolby Digital
Codec ID : A_AC3
Duration : 52 min 35 s
Bit rate mode : Constant
Bit rate : 384 kb/s
Channel(s) : 6 channels
Channel layout : L R C LFE Ls Rs
Sampling rate : 48.0 kHz
Frame rate : 31.250 FPS (1536 SPF)
Bit depth : 16 bits
Compression mode : Lossy
Stream size : 144 MiB (19%)
Language : Russian
Service kind : Complete Main
Default : Yes
Forced : No

Скриншоты

Профиль [ЛС]
Показать сообщения:    

Текущее время: 01-Дек 03:24

Часовой пояс: UTC ± 0



Вы не можете начинать темы
Вы не можете отвечать на сообщения
Вы не можете редактировать свои сообщения
Вы не можете удалять свои сообщения
Вы не можете голосовать в опросах
Вы не можете прикреплять файлы к сообщениям
Вы не можете скачивать файлы